Каждый за себя, а Бог против всех / Jeder für sich und Gott gegen alle (Вернер Херцог / Werner Herzog) [1974, Германия, драма, BDRip 720p] DVO (ТК "Культура") + VO + Sub Eng, Rus + Original Ger


 

[Цитировать]

Каждый за себя, а Бог против всех / Jeder für sich und Gott gegen alle
Страна: Германия
Жанр: драма
Год выпуска: 1974
Продолжительность: 01:49:23
Перевод 1: Профессиональный (двухголосый закадровый) (ТК "Культура")
Перевод 2: Одноголосый закадровый
Cубтитры: английские, русские
Оригинальная аудиодорожка: немецкий
Режиссер: Вернер Херцог / Werner Herzog
В ролях: Бруно С., Вальтер Ладенгаст, Бригитте Мира, Вилли Земмельрогге, Михаэль Крёхер, Ганс Музэус, Хенри ван Лик, Глория Доэр, Фолькер Прехтель
Описание: "Каждый за себя, а Бог против всех"- философская притча Херцога на тему человека, непохожего на других, не укладывающегося в привычные обывательские рамки
Действие происходит в Германии в XIX веке. Бедный старик вырастил в клетке, как зверя, мальчика-найденыша. Местные ученые и аристократы берутся приобщить его к достижениям цивилизации, и он оказывается талантливым учеником. Но по-настоящему принимают его только дети, еще не успевшие избавиться от естественности и непосредственности. В конце Каспар Хаузер гибнет, т.к. сам мир, в котором “каждый за себя, а Бог против всех”, обречен...

Доп. информация:


издание BFI
Тип релиза: BDRip 720p| sample
Контейнер: MKV
Видео: H.264/AVC, 1196x720, 1.66:1, 24.00fps, 7211 Kbps
Аудио 1: Russian, DD 2.0, 48 kHz, 192 Kbps DVO
Аудио 2: Russian, DD 1.0, 48 kHz, 96 Kbps VO
Аудио 3: German, FLAC 1.0, 48 kHz, ~265 Kbps original
Аудио 4: English (commentary)), DD 2.0, 48 kHz, 192 Kbps
Формат субтитров: softsub (SRT)

MI

General
Unique ID                                : 205688810544891650363435324620217735332 (0x9ABE39547C03222AB2C070EFFE1B58A4)
Complete name                            : Jeder fur sich und Gott gegen alle 1974 720p Bluray FLAC rus ger.mkv
Format                                   : Matroska
Format version                           : Version 4 / Version 2
File size                                : 6.09 GiB
Duration                                 : 1h 49mn
Overall bit rate mode                    : Variable
Overall bit rate                         : 7 966 Kbps
Movie name                               : Jeder für sich und Gott gegen alle (1974)
Encoded date                             : UTC 2014-10-13 09:19:05
Writing application                      : mkvmerge v7.1.0 ('Good Love') 64bit built on Jul 27 2014 13:06:55
Writing library                          : libebml v1.3.0 + libmatroska v1.4.1
DURATION                                 : 01:47:02.956000000
NUMBER_OF_FRAMES                         : 761
NUMBER_OF_BYTES                          : 54794
_STATISTICS_WRITING_APP                  : mkvmerge v7.1.0 ('Good Love') 64bit built on Jul 27 2014 13:06:55
_STATISTICS_WRITING_DATE_UTC             : 2014-10-13 09:19:05
_STATISTICS_TAGS                         : BPS DURATION NUMBER_OF_FRAMES NUMBER_OF_BYTES
Video
ID                                       : 1
Format                                   : AVC
Format/Info                              : Advanced Video Codec
Format profile                           : High@L4.1
Format settings, CABAC                   : Yes
Format settings, ReFrames                : 9 frames
Codec ID                                 : V_MPEG4/ISO/AVC
Duration                                 : 1h 49mn
Width                                    : 1 196 pixels
Height                                   : 720 pixels
Display aspect ratio                     : 1.661
Frame rate mode                          : Constant
Frame rate                               : 24.000 fps
Color space                              : YUV
Chroma subsampling                       : 4:2:0
Bit depth                                : 8 bits
Scan type                                : Progressive
Writing library                          : x264 core 142 r2453kMod ea0ca51
Encoding settings                        : cabac=1 / ref=9 / deblock=1:-3:-3 / analyse=0x3:0x133 / me=tesa / subme=11 / psy=1 / fade_compensate=0.00 / psy_rd=1.10:0.00 / mixed_ref=1 / me_range=16 / chroma_me=1 / trellis=2 / 8x8dct=1 / cqm=0 / deadzone=21,11 / fast_pskip=1 / chroma_qp_offset=-2 / threads=6 / lookahead_threads=1 / sliced_threads=0 / nr=0 / decimate=1 / interlaced=0 / bluray_compat=0 / constrained_intra=0 / fgo=0 / bframes=9 / b_pyramid=2 / b_adapt=2 / b_bias=0 / direct=3 / weightb=1 / open_gop=0 / weightp=2 / keyint=250 / keyint_min=24 / scenecut=40 / intra_refresh=0 / rc_lookahead=60 / rc=crf / mbtree=0 / crf=16.2000 / qcomp=0.65 / qpmin=0 / qpmax=69 / qpstep=4 / vbv_maxrate=50000 / vbv_bufsize=62500 / crf_max=0.0 / nal_hrd=none / filler=0 / ip_ratio=1.40 / pb_ratio=1.30 / aq=2:0.65
Language                                 : English
Default                                  : Yes
Forced                                   : No
DURATION                                 : 01:49:23.459000000
NUMBER_OF_FRAMES                         : 157523
NUMBER_OF_BYTES                          : 5916776899
_STATISTICS_WRITING_APP                  : mkvmerge v7.1.0 ('Good Love') 64bit built on Jul 27 2014 13:06:55
_STATISTICS_WRITING_DATE_UTC             : 2014-10-13 09:19:05
_STATISTICS_TAGS                         : BPS DURATION NUMBER_OF_FRAMES NUMBER_OF_BYTES
Audio #1
ID                                       : 2
Format                                   : AC-3
Format/Info                              : Audio Coding 3
Mode extension                           : CM (complete main)
Format settings, Endianness              : Big
Codec ID                                 : A_AC3
Duration                                 : 1h 49mn
Bit rate mode                            : Constant
Bit rate                                 : 192 Kbps
Channel(s)                               : 2 channels
Channel positions                        : Front: L R
Sampling rate                            : 48.0 KHz
Bit depth                                : 16 bits
Compression mode                         : Lossy
Stream size                              : 150 MiB (2%)
Title                                    : DVO [ТК "Культура]
Language                                 : Russian
Default                                  : Yes
Forced                                   : No
Audio #2
ID                                       : 3
Format                                   : AC-3
Format/Info                              : Audio Coding 3
Mode extension                           : CM (complete main)
Format settings, Endianness              : Big
Codec ID                                 : A_AC3
Duration                                 : 1h 49mn
Bit rate mode                            : Constant
Bit rate                                 : 96.0 Kbps
Channel(s)                               : 1 channel
Channel positions                        : Front: C
Sampling rate                            : 48.0 KHz
Bit depth                                : 16 bits
Compression mode                         : Lossy
Stream size                              : 75.1 MiB (1%)
Title                                    : VO
Language                                 : Russian
Default                                  : No
Forced                                   : No
Audio #3
ID                                       : 4
Format                                   : FLAC
Format/Info                              : Free Lossless Audio Codec
Codec ID                                 : A_FLAC
Duration                                 : 1h 49mn
Bit rate mode                            : Variable
Channel(s)                               : 1 channel
Sampling rate                            : 48.0 KHz
Bit depth                                : 16 bits
Writing library                          : libFLAC 1.2.1 (UTC 2007-09-17)
Language                                 : German
Default                                  : No
Forced                                   : No
Audio #4
ID                                       : 5
Format                                   : AC-3
Format/Info                              : Audio Coding 3
Mode extension                           : CM (complete main)
Format settings, Endianness              : Big
Codec ID                                 : A_AC3
Duration                                 : 1h 49mn
Bit rate mode                            : Constant
Bit rate                                 : 192 Kbps
Channel(s)                               : 2 channels
Channel positions                        : Front: L R
Sampling rate                            : 48.0 KHz
Bit depth                                : 16 bits
Compression mode                         : Lossy
Stream size                              : 150 MiB (2%)
Title                                    : commentary with Werner Herzog and Norman Hill
Language                                 : English
Default                                  : No
Forced                                   : No
Text #1
ID                                       : 6
Format                                   : UTF-8
Codec ID                                 : S_TEXT/UTF8
Codec ID/Info                            : UTF-8 Plain Text
Language                                 : Russian
Default                                  : No
Forced                                   : No
Text #2
ID                                       : 7
Format                                   : UTF-8
Codec ID                                 : S_TEXT/UTF8
Codec ID/Info                            : UTF-8 Plain Text
Language                                 : English
Default                                  : No
Forced                                   : No
Text #3
ID                                       : 8
Format                                   : PGS
Muxing mode                              : zlib
Codec ID                                 : S_HDMV/PGS
Codec ID/Info                            : The same subtitle format used on BDs/HD-DVDs
Language                                 : English
Default                                  : No
Forced                                   : No
Menu
00:00:00.000                             : en:00:00:00.000
00:09:35.708                             : en:00:09:35.708
00:19:05.208                             : en:00:19:05.208
00:30:31.000                             : en:00:30:31.000
00:40:06.667                             : en:00:40:06.667
00:47:33.333                             : en:00:47:33.333
01:02:16.458                             : en:01:02:16.458
01:13:37.583                             : en:01:13:37.583
01:24:03.542                             : en:01:24:03.542
01:32:04.792                             : en:01:32:04.792
01:36:08.917                             : en:01:36:08.917
01:45:50.333                             : en:01:45:50.333



Показать сообщения:    

Текущее время: 06-Дек 20:56

Часовой пояс: UTC + 3


Вы не можете начинать темы
Вы не можете отвечать на сообщения
Вы не можете редактировать свои сообщения
Вы не можете удалять свои сообщения
Вы не можете голосовать в опросах
Вы не можете прикреплять файлы к сообщениям
Вы не можете скачивать файлы