Макбет / The Tragedy of Macbeth (Роман Полански / Roman Polanski) [1971, Великобритания, США, драма, BDRemux 1080p] [Criterion Collection] 2x MVO + Sub (2x Rus, Eng) + Original Eng


 

[Цитировать]

Макбет / The Tragedy of Macbeth
Страна: Великобритания, США
Жанр: драма
Год выпуска: 1971
Продолжительность: 02:20:26
Перевод: Профессиональный (многоголосый закадровый) SomeWax
Перевод: Профессиональный (многоголосый закадровый) DVD Магия
Cубтитры: русские (2 вида), английские
Оригинальная аудиодорожка: английский-Режиссер: Роман Полански / Roman Polanski
В ролях: Джон Финч, Франческа Аннис, Мартин Шоу, Теренс Бэйлер, Джон Страйд, Николас Шелби, Пол Шелли, Ноэл Дэвис, Сидни Бромлей, Ричард Пирсон, Майкл Бальфур, Эндрю Маккаллок, Бернард Арчард, Брюс Пёрчейс, Дайана Флетчер, Рой Джонс, Йен Хогг, Уильям Хоббс, Альф Джойнт, Патриция Мэйсон, Эндрю Лоуренс, Фрэнк Вайли, Билл Драйсдейл, Джеффри Рид
Описание: Экранизация трагедии Уильяма Шекспира.
Возвращаясь из очередного победоносного похода, шотландский военачальник Макбет встречает трех ведьм, которые предсказывают ему, что он будет королем. Теперь эта мысль не дает Макбету покоя, и при помощи своей жены он убивает правящего короля Дункана, а все подозрения в убийстве падают на прислугу. Но будучи королём, Макбет снова видит тех же самых ведьм, которые на этот раз делают предостерегающие предсказания о том, что ему суждено потерять власть...
IMDb || КиноПоиск-Тип релиза: BDRemux 1080p
Контейнер: MKV
Видео: MPEG-4 AVC Video, 1920x1080 at 23.976 fps, 24073 kbps
Аудио#1: Russian: 48 kHz, AC3, 2.0 ch, 192 kbps |SomeWax
Аудио#2: Russian: 48 kHz, АС3, 2.0 ch, 192 kbps |DVD Магия
Аудио#3: English: 48 kHz, DTS-HD MA, 3.0 ch, 2229 kbps (DTS Core: 3.0 / 48 kHz / 1509 kbps / 24-bit)
Формат субтитров: softsub (SRT)
Сэмпл

Дополнительно

Русские субтитры SomeWax предоставил AMDG1000.

MediaInfo

Source: The Tragedy of Macbeth 1971 1080p Blu-ray AVC DTS-HD MA 3.0 (thanks GoLiATH)-General
Unique ID : 210170062312266349401586185667432176795 (0x9E1D4819B238799298D06A8F7D7C5C9B)
Complete name : N:\Rutracker\Макбет\The.Tragedy.of.Macbeth.1971.Criterion.BDRemux. rutracker.mkv
Format : Matroska
Format version : Version 2
File size : 26.1 GiB
Duration : 2h 20mn
Overall bit rate mode : Variable
Overall bit rate : 26.6 Mbps
Movie name : Release for RuTracker
Writing application : mkvmerge v5.0.1 ('Es ist Sommer') built on Nov 6 2011 16:23:40
Writing library : libebml v1.2.2 + libmatroska v1.3.0
Video
ID : 1
Format : AVC
Format/Info : Advanced Video Codec
Format profile : High@L4.1
Format settings, CABAC : Yes
Format settings, ReFrames : 4 frames
Codec ID : V_MPEG4/ISO/AVC
Duration : 2h 20mn
Bit rate mode : Variable
Maximum bit rate : 37.0 Mbps
Width : 1 920 pixels
Height : 1 080 pixels
Display aspect ratio : 16:9
Frame rate mode : Constant
Frame rate : 23.976 fps
Color space : YUV
Chroma subsampling : 4:2:0
Bit depth : 8 bits
Scan type : Progressive
Title : The.Tragedy.of.Macbeth.1971.Criterion.BDRemux. rutracker
Language : English
Default : Yes
Forced : No
Audio #1
ID : 2
Format : AC-3
Format/Info : Audio Coding 3
Mode extension : CM (complete main)
Format settings, Endianness : Big
Codec ID : A_AC3
Duration : 2h 20mn
Bit rate mode : Constant
Bit rate : 192 Kbps
Channel(s) : 2 channels
Channel positions : Front: L R
Sampling rate : 48.0 KHz
Bit depth : 16 bits
Compression mode : Lossy
Stream size : 193 MiB (1%)
Title : mvo, SomeWax
Language : Russian
Default : Yes
Forced : No
Audio #2
ID : 3
Format : AC-3
Format/Info : Audio Coding 3
Mode extension : CM (complete main)
Format settings, Endianness : Big
Codec ID : A_AC3
Duration : 2h 20mn
Bit rate mode : Constant
Bit rate : 192 Kbps
Channel(s) : 2 channels
Channel positions : Front: L R
Sampling rate : 48.0 KHz
Bit depth : 16 bits
Compression mode : Lossy
Stream size : 193 MiB (1%)
Title : mvo, DVD Магия
Language : Russian
Default : No
Forced : No
Audio #3
ID : 4
Format : DTS
Format/Info : Digital Theater Systems
Format profile : MA / Core
Mode : 16
Format settings, Endianness : Big
Codec ID : A_DTS
Duration : 2h 20mn
Bit rate mode : Variable
Bit rate : Unknown / 1 509 Kbps
Channel(s) : 3 channels
Channel positions : Front: L C R
Sampling rate : 48.0 KHz
Bit depth : 24 bits
Compression mode : Lossless / Lossy
Language : English
Default : No
Forced : No
Text #1
ID : 5
Format : UTF-8
Codec ID : S_TEXT/UTF8
Codec ID/Info : UTF-8 Plain Text
Title : #1
Language : Russian
Default : No
Forced : No
Text #2
ID : 6
Format : UTF-8
Codec ID : S_TEXT/UTF8
Codec ID/Info : UTF-8 Plain Text
Title : #2 SomeWax
Language : Russian
Default : No
Forced : No
Text #3
ID : 7
Format : UTF-8
Codec ID : S_TEXT/UTF8
Codec ID/Info : UTF-8 Plain Text
Language : English
Default : No
Forced : No
Menu
00:00:00.000 : en:00:00:00.000
00:08:00.689 : en:00:08:00.689
00:17:23.918 : en:00:17:23.918
00:22:54.915 : en:00:22:54.915
00:36:15.465 : en:00:36:15.465
00:50:46.919 : en:00:50:46.919
00:59:16.928 : en:00:59:16.928
01:08:59.677 : en:01:08:59.677
01:16:06.979 : en:01:16:06.979
01:26:26.264 : en:01:26:26.264
01:33:44.661 : en:01:33:44.661
01:41:51.147 : en:01:41:51.147
01:49:05.789 : en:01:49:05.789
01:58:03.827 : en:01:58:03.827
02:06:52.355 : en:02:06:52.355
02:19:04.836 : en:02:19:04.836

Скриншоты




Показать сообщения:    

Текущее время: 09-Дек 14:40

Часовой пояс: UTC + 3


Вы не можете начинать темы
Вы не можете отвечать на сообщения
Вы не можете редактировать свои сообщения
Вы не можете удалять свои сообщения
Вы не можете голосовать в опросах
Вы не можете прикреплять файлы к сообщениям
Вы не можете скачивать файлы