Семейный очаг / Domicile conjugal / Bed & Board (Франсуа Трюффо / François Truffaut) [1970 г., Франция, Италия, мелодрама, комедия, BDRip 720p] 2x MVO (Кармен Видео, SomeWax) + DVO (Домашний) + Original Fre + Sub (Rus, Eng, Fre)


 

[Цитировать]

Семейный очаг / Domicile conjugal- Год выпуска: 1970
Страна: Франция, Италия
Жанр: мелодрама, комедия
Продолжительность: 01:37:29
Перевод 1: Профессиональный (многоголосый закадровый) Кармен Видео
Перевод 2: Профессиональный (многоголосый закадровый) SomeWax
Перевод 3: Профессиональный (двухголосый закадровый) т/к «Домашний»
Оригинальная аудиодорожка: Французская
Cубтитры: Русские (R5), английские (полные, на комментарии), французские-Режиссер: Франсуа Трюффо / François Truffaut
В ролях: Жан-Пьер Лео, Клод Жад, Хироко Бергауэр, Барбара Лааж, Даниэль Жирар, Даниэль Секкальди, Клер Дюамель, Даниэль Буланже, Сильвана Блази, Пьер Магелон-Описание:
Фильм входит в цикл фильмов, объединенных одним героем, Антуаном Дуанелем. Цикл начинается полуавтобиографическим фильмом «Четыреста ударов» (Les Quatre cents coups) и продолжается в таких фильмах, как «Антуан и Колетт» (Antoine et Colette, новелла в фильме «Любовь в 20 лет», 1962), «Украденные поцелуи» (Baisers volés, 1968, c Жан-Пьером Лео, Клод Жад), «Семейный очаг» (Domicile conjugal, 1970, Жан-Пьер Лео, Клод Жад), «Сбежавшая любовь» (L’amoure en fuite, 1979, c Жан-Пьером Лео, Клод Жад).
Продолжение во многом автобиографичной истории подростка Антуана Дуанеля. Он тяготится своим положением в школе и в семье, стремится вырваться из тусклой и унылой повседневной жизни. Повзрослев, Дуанель влюбляется и женится на Кристин, становится отцом ребенка, затем экспериментирует с адюльтером, заведя малоинтересную любовную интрижку с Киоко.-За "Кармен" спасибо L. Lacombe, за "Домашний" спасибо miha2154.
| IMDb | Сэмпл-Качество: BDRip 720p (DON)
Контейнер: MKV
Видео: x264, 1198x720 (1.66:1), 24 fps, 10313 kbps
Аудио 1: Русский AС3, 2.0, 48 kHz, 192 kbps — Кармен
Аудио 2: Русский AС3, 2.0, 48 kHz, 192 kbps — SomeWax
Аудио 3: Русский AС3, 2.0, 48 kHz, 192 kbps — Домашний
Аудио 4: Французский FLAC 2.0, 48 kHz, 337 kbps
Аудио 5: Французский AAC 2.0, 48 kHz, 64 kbps — Комментарии
Формат субтитров: softsub (SRT)

MInfo

Info
RUNTIME.......: 1h 37mn
SIZE..........: 7.30 GiB
VIDEO CODEC...: x264, CRF 18.6, L4.1
FRAMERATE.....: 24.000 fps
BITRATE.......: 10.1 Mb
RESOLUTION....: 1198x720
AUDIO ........: French 2.0ch FLAC
AUDIO 2.......: French 2.0ch AAC (Commentary - by actress Claude Jade & screenwriter Claude de Givray)
SUBTITLES.....: English,English(commentary)
CHAPTERS/NAMED: Yes / No
SOURCE........: Domicile conjugal 1970 1080p GBR Blu-ray AVC LPCM 2.0-ESiR(thanks!)
NOTES.........: Dirty lines fixed
x264 info
profile High, level 4.1
x264 [info]: frame I:778 Avg QP:18.11 size:129840
x264 [info]: frame P:25023 Avg QP:19.70 size: 83843
x264 [info]: frame B:114575 Avg QP:21.20 size: 46620
x264 [info]: consecutive B-frames: 0.7% 0.5% 1.7% 8.7% 15.9% 55.0% 11.1% 1.2% 3.6% 1.4%
x264 [info]: kb/s:10313.62
encoded 140376 frames, 3.219 fps, 10313.62 kb/s, 7191.2 MB
General
Unique ID : 173222813261568985109958113321368441827 (0x8251801464275BDCB07FBE9029F053E3)
Complete name : Domicile.conjugal.1970.720p.BluRay.x264-DON.mkv
Format : Matroska
Format version : Version 2
File size : 7.69 GiB
Duration : 1h 37mn
Overall bit rate mode : Variable
Overall bit rate : 11.3 Mbps
Movie name : Domicile conjugal / Семейный очаг (1970) – RuTracker
Encoded date : UTC 2014-10-02 14:47:59
Writing application : mkvmerge v7.0.0 ('Where We Going') 64bit built on Jun 9 2014 15:16:27
Writing library : libebml v1.3.0 + libmatroska v1.4.1
Attachment : Yes
Video
ID : 1
Format : AVC
Format/Info : Advanced Video Codec
Format profile : High@L4.1
Format settings, CABAC : Yes
Format settings, ReFrames : 9 frames
Codec ID : V_MPEG4/ISO/AVC
Duration : 1h 37mn
Width : 1 198 pixels
Height : 720 pixels
Display aspect ratio : 1.664
Frame rate mode : Constant
Frame rate : 24.000 fps
Color space : YUV
Chroma subsampling : 4:2:0
Bit depth : 8 bits
Scan type : Progressive
Title : Domicile.conjugal.1970.720p.BluRay.FLAC2.0.x264-DON
Writing library : x264 core 142 r2409+42 04be48a tMod [8-bit@all X86_64]
Encoding settings : cabac=1 / ref=9 / deblock=1:-3:-3 / analyse=0x3:0x133 / me=esa / subme=10 / psy=1 / fade_compensate=0.00 / psy_rd=1.05:0.00 / mixed_ref=1 / me_range=32 / chroma_me=1 / trellis=2 / 8x8dct=1 / cqm=0 / deadzone=21,11 / fast_pskip=0 / chroma_qp_offset=-2 / threads=12 / lookahead_threads=2 / sliced_threads=0 / nr=0 / decimate=1 / interlaced=0 / bluray_compat=0 / constrained_intra=0 / fgo=0 / bframes=9 / b_pyramid=2 / b_adapt=2 / b_bias=0 / direct=3 / weightb=1 / open_gop=0 / weightp=2 / keyint=241 / keyint_min=24 / scenecut=40 / intra_refresh=0 / rc_lookahead=60 / rc=crf / mbtree=0 / crf=18.6000 / qcomp=0.70 / qpmin=0:0:0 / qpmax=69:69:69 / qpstep=4 / vbv_maxrate=50000 / vbv_bufsize=62500 / crf_max=0.0 / nal_hrd=none / filler=0 / ip_ratio=1.30 / pb_ratio=1.20 / aq=1:0.70 / aq-sensitivity=10.00 / aq-factor=1.00:1.00:1.00 / aq2=0 / aq3=0
Language : French
Default : Yes
Forced : No
Audio #1
ID : 2
Format : AC-3
Format/Info : Audio Coding 3
Mode extension : CM (complete main)
Format settings, Endianness : Big
Codec ID : A_AC3
Duration : 1h 37mn
Bit rate mode : Constant
Bit rate : 192 Kbps
Channel(s) : 2 channels
Channel positions : Front: L R
Sampling rate : 48.0 KHz
Bit depth : 16 bits
Compression mode : Lossy
Stream size : 134 MiB (2%)
Title : MVO – Кармен Видео
Language : Russian
Default : Yes
Forced : No
Audio #2
ID : 3
Format : AC-3
Format/Info : Audio Coding 3
Mode extension : CM (complete main)
Format settings, Endianness : Big
Codec ID : A_AC3
Duration : 1h 37mn
Bit rate mode : Constant
Bit rate : 192 Kbps
Channel(s) : 2 channels
Channel positions : Front: L R
Sampling rate : 48.0 KHz
Bit depth : 16 bits
Compression mode : Lossy
Stream size : 134 MiB (2%)
Title : MVO – SomeWax
Language : Russian
Default : No
Forced : No
Audio #3
ID : 4
Format : AC-3
Format/Info : Audio Coding 3
Mode extension : CM (complete main)
Format settings, Endianness : Big
Codec ID : A_AC3
Duration : 1h 37mn
Bit rate mode : Constant
Bit rate : 192 Kbps
Channel(s) : 2 channels
Channel positions : Front: L R
Sampling rate : 48.0 KHz
Bit depth : 16 bits
Compression mode : Lossy
Stream size : 134 MiB (2%)
Title : DVO – Домашний
Language : Russian
Default : No
Forced : No
Audio #4
ID : 5
Format : FLAC
Format/Info : Free Lossless Audio Codec
Codec ID : A_FLAC
Duration : 1h 37mn
Bit rate mode : Variable
Channel(s) : 2 channels
Sampling rate : 48.0 KHz
Bit depth : 16 bits
Title : Original
Writing library : libFLAC 1.2.1 (UTC 2007-09-17)
Language : French
Default : No
Forced : No
Audio #5
ID : 6
Format : AAC
Format/Info : Advanced Audio Codec
Format profile : LC
Codec ID : A_AAC
Duration : 1h 37mn
Channel(s) : 2 channels
Channel positions : Front: L R
Sampling rate : 48.0 KHz
Compression mode : Lossy
Title : Commentary - by actress Claude Jade & screenwriter Claude de Givray
Language : French
Default : No
Forced : No
Text #1
ID : 7
Format : UTF-8
Codec ID : S_TEXT/UTF8
Codec ID/Info : UTF-8 Plain Text
Title : R5
Language : Russian
Default : No
Forced : No
Text #2
ID : 8
Format : UTF-8
Codec ID : S_TEXT/UTF8
Codec ID/Info : UTF-8 Plain Text
Title : full
Language : English
Default : No
Forced : No
Text #3
ID : 9
Format : UTF-8
Codec ID : S_TEXT/UTF8
Codec ID/Info : UTF-8 Plain Text
Title : SDH
Language : French
Default : No
Forced : No
Text #4
ID : 10
Format : UTF-8
Codec ID : S_TEXT/UTF8
Codec ID/Info : UTF-8 Plain Text
Title : Commentary
Language : English
Default : No
Forced : No
Menu
00:00:00.000 : en:Chapter 01
00:13:15.208 : en:Chapter 02
00:21:57.500 : en:Chapter 03
00:29:19.666 : en:Chapter 04
00:36:48.458 : en:Chapter 05
00:46:27.541 : en:Chapter 06
00:54:44.083 : en:Chapter 07
01:00:09.291 : en:Chapter 08
01:09:07.625 : en:Chapter 09
01:17:01.750 : en:Chapter 10
01:26:52.666 : en:Chapter 11
01:30:32.125 : en:Chapter 12



Показать сообщения:    

Текущее время: 11-Дек 13:00

Часовой пояс: UTC + 3


Вы не можете начинать темы
Вы не можете отвечать на сообщения
Вы не можете редактировать свои сообщения
Вы не можете удалять свои сообщения
Вы не можете голосовать в опросах
Вы не можете прикреплять файлы к сообщениям
Вы не можете скачивать файлы