Семейный очаг / Domicile conjugal / Bed & Board (Франсуа Трюффо / François Truffaut) [1970 г., Франция, Италия, мелодрама, комедия, BDRemux 1080p] 2x MVO (Кармен Видео, SomeWax) + DVO (Домашний) + Original Fre + Sub (Rus, Eng, Fre)


 

[Цитировать]

Семейный очаг / Domicile conjugal- Год выпуска: 1970
Страна: Франция, Италия
Жанр: мелодрама, комедия
Продолжительность: 01:37:29
Перевод 1: Профессиональный (многоголосый закадровый) Кармен Видео
Перевод 2: Профессиональный (многоголосый закадровый) SomeWax
Перевод 3: Профессиональный (двухголосый закадровый) т/к «Домашний»
Оригинальная аудиодорожка: Французская
Cубтитры: Русские (R5), английские (полные, на комментарии), французские-Режиссер: Франсуа Трюффо / François Truffaut
В ролях: Жан-Пьер Лео, Клод Жад, Хироко Бергауэр, Барбара Лааж, Даниэль Жирар, Даниэль Секкальди, Клер Дюамель, Даниэль Буланже, Сильвана Блази, Пьер Магелон-Описание:
Фильм входит в цикл фильмов, объединенных одним героем, Антуаном Дуанелем. Цикл начинается полуавтобиографическим фильмом «Четыреста ударов» (Les Quatre cents coups) и продолжается в таких фильмах, как «Антуан и Колетт» (Antoine et Colette, новелла в фильме «Любовь в 20 лет», 1962), «Украденные поцелуи» (Baisers volés, 1968, c Жан-Пьером Лео, Клод Жад), «Семейный очаг» (Domicile conjugal, 1970, Жан-Пьер Лео, Клод Жад), «Сбежавшая любовь» (L’amoure en fuite, 1979, c Жан-Пьером Лео, Клод Жад).
Продолжение во многом автобиографичной истории подростка Антуана Дуанеля. Он тяготится своим положением в школе и в семье, стремится вырваться из тусклой и унылой повседневной жизни. Повзрослев, Дуанель влюбляется и женится на Кристин, становится отцом ребенка, затем экспериментирует с адюльтером, заведя малоинтересную любовную интрижку с Киоко.-За "Кармен" спасибо L. Lacombe, за "Домашний" спасибо miha2154.
| IMDb | Сэмпл-Качество: BDRemux 1080p (Domicile conjugal 1970 1080p GBR Blu-ray AVC LPCM 2.0-ESiR, thx DBaT)
Контейнер: MKV
Видео: AVC, 1920x1080 (1.66:1), 24 fps, 24998 kbps
Аудио 1: Русский AС3, 2.0, 48 kHz, 192 kbps — Кармен
Аудио 2: Русский AС3, 2.0, 48 kHz, 192 kbps — SomeWax
Аудио 3: Русский AС3, 2.0, 48 kHz, 192 kbps — Домашний
Аудио 4: Французский DTS-HD MA 2.0, 48 kHz, 1586 kbps, 16-bit (DTS Core: 2.0, 48 kHz, 1509 kbps, 16-bit)
Аудио 5: Французский FLAC 2.0, 48 kHz, 499 kbps — Комментарии
Формат субтитров: softsub (SRT)

Скриншоты


MI

General
Unique ID : 239400403982238765441732309466001505425 (0xB41AD73654CE8C438DC9693A5010FC91)
Complete name : Domicile.conjugal.1970.1080p.Remux.mkv
Format : Matroska
Format version : Version 2
File size : 18.8 GiB
Duration : 1h 37mn
Overall bit rate mode : Variable
Overall bit rate : 27.7 Mbps
Movie name : Domicile conjugal / Семейный очаг (1970) – RuTracker
Encoded date : UTC 2014-10-01 19:39:29
Writing application : mkvmerge v7.0.0 ('Where We Going') 64bit built on Jun 9 2014 15:16:27
Writing library : libebml v1.3.0 + libmatroska v1.4.1
Attachment : Yes
Video
ID : 1
Format : AVC
Format/Info : Advanced Video Codec
Format profile : High@L4.1
Format settings, CABAC : Yes
Format settings, ReFrames : 4 frames
Codec ID : V_MPEG4/ISO/AVC
Duration : 1h 37mn
Bit rate mode : Variable
Maximum bit rate : 35.0 Mbps
Width : 1 920 pixels
Height : 1 080 pixels
Display aspect ratio : 16:9
Frame rate mode : Constant
Frame rate : 24.000 fps
Standard : NTSC
Color space : YUV
Chroma subsampling : 4:2:0
Bit depth : 8 bits
Scan type : Progressive
Title : Domicile conjugal 1970 1080p GBR Blu-ray AVC LPCM 2.0-ESiR
Language : French
Default : Yes
Forced : No
Color primaries : BT.709
Transfer characteristics : BT.709
Matrix coefficients : BT.709
Audio #1
ID : 2
Format : AC-3
Format/Info : Audio Coding 3
Mode extension : CM (complete main)
Format settings, Endianness : Big
Codec ID : A_AC3
Duration : 1h 37mn
Bit rate mode : Constant
Bit rate : 192 Kbps
Channel(s) : 2 channels
Channel positions : Front: L R
Sampling rate : 48.0 KHz
Bit depth : 16 bits
Compression mode : Lossy
Stream size : 134 MiB (1%)
Title : MVO – Кармен Видео
Language : Russian
Default : Yes
Forced : No
Audio #2
ID : 3
Format : AC-3
Format/Info : Audio Coding 3
Mode extension : CM (complete main)
Format settings, Endianness : Big
Codec ID : A_AC3
Duration : 1h 37mn
Bit rate mode : Constant
Bit rate : 192 Kbps
Channel(s) : 2 channels
Channel positions : Front: L R
Sampling rate : 48.0 KHz
Bit depth : 16 bits
Compression mode : Lossy
Stream size : 134 MiB (1%)
Title : MVO – SomeWax
Language : Russian
Default : No
Forced : No
Audio #3
ID : 4
Format : AC-3
Format/Info : Audio Coding 3
Mode extension : CM (complete main)
Format settings, Endianness : Big
Codec ID : A_AC3
Duration : 1h 37mn
Bit rate mode : Constant
Bit rate : 192 Kbps
Channel(s) : 2 channels
Channel positions : Front: L R
Sampling rate : 48.0 KHz
Bit depth : 16 bits
Compression mode : Lossy
Stream size : 134 MiB (1%)
Title : DVO – Домашний
Language : Russian
Default : No
Forced : No
Audio #4
ID : 5
Format : DTS
Format/Info : Digital Theater Systems
Format profile : MA / Core
Mode : 16
Format settings, Endianness : Big
Codec ID : A_DTS
Duration : 1h 37mn
Bit rate mode : Variable
Bit rate : Unknown / 1 509 Kbps
Channel(s) : 2 channels
Channel positions : Front: L R
Sampling rate : 48.0 KHz
Bit depth : 16 bits
Compression mode : Lossless / Lossy
Title : Original
Language : French
Default : No
Forced : No
Audio #5
ID : 6
Format : FLAC
Format/Info : Free Lossless Audio Codec
Codec ID : A_FLAC
Duration : 1h 37mn
Bit rate mode : Variable
Channel(s) : 2 channels
Sampling rate : 48.0 KHz
Bit depth : 16 bits
Title : Commentary with Claude Jade and Claude De Giveray
Writing library : libFLAC 1.2.1 (UTC 2007-09-17)
Language : French
Default : No
Forced : No
Text #1
ID : 7
Format : UTF-8
Codec ID : S_TEXT/UTF8
Codec ID/Info : UTF-8 Plain Text
Title : R5
Language : Russian
Default : No
Forced : No
Text #2
ID : 8
Format : UTF-8
Codec ID : S_TEXT/UTF8
Codec ID/Info : UTF-8 Plain Text
Title : full
Language : English
Default : No
Forced : No
Text #3
ID : 9
Format : UTF-8
Codec ID : S_TEXT/UTF8
Codec ID/Info : UTF-8 Plain Text
Title : SDH
Language : French
Default : No
Forced : No
Text #4
ID : 10
Format : UTF-8
Codec ID : S_TEXT/UTF8
Codec ID/Info : UTF-8 Plain Text
Title : Commentary
Language : English
Default : No
Forced : No
Menu
00:00:00.000 : en:Chapter 01
00:13:15.208 : en:Chapter 02
00:21:57.500 : en:Chapter 03
00:29:19.666 : en:Chapter 04
00:36:48.458 : en:Chapter 05
00:46:27.541 : en:Chapter 06
00:54:44.083 : en:Chapter 07
01:00:09.291 : en:Chapter 08
01:09:07.625 : en:Chapter 09
01:17:01.750 : en:Chapter 10
01:26:52.666 : en:Chapter 11
01:30:32.125 : en:Chapter 12



Показать сообщения:    

Текущее время: 08-Дек 10:55

Часовой пояс: UTC + 3


Вы не можете начинать темы
Вы не можете отвечать на сообщения
Вы не можете редактировать свои сообщения
Вы не можете удалять свои сообщения
Вы не можете голосовать в опросах
Вы не можете прикреплять файлы к сообщениям
Вы не можете скачивать файлы