Голова-ластик / Eraserhead (Дэвид Линч / David Lynch) [1977, США, драма, сюрреализм, BDRemux 1080p] [Criterion Collection] AVO (Визгунов) + Sub (2x Rus, Eng) + Original Eng


 

[Цитировать]

Голова-ластик / Eraserhead
Страна: США
Жанр: драма, сюрреализм
Год выпуска: 1977
Продолжительность: 01:29:18
Перевод: Авторский (одноголосый закадровый) Сергей Визгунов
Cубтитры: русские, английские
Оригинальная аудиодорожка: английский-Режиссер: Дэвид Линч / David Lynch
В ролях: Джек Нэнс, Шарлотта Стюарт, Аллен Джозеф, Джинна Бэйтс, Джудит Робертс
Описание: "Сон о темных и тревожных вещах", так характеризует свой первый полнометражный фильм автор.
В обстановке постиндустриального запустения проживает герой, странного вида человек по имени Генри Спенсер, его соседка как-то сообщает, что его девушка Мэри приглашает его на обед с родителями. Во время обеда Генри узнает, что он отец недоношенного ребенка. Генри забирает девушку с ребенком к себе, но она вскоре сбегает, не выдерживая плача младенца. Вид ребенка становится все более отталкивающим...
IMDb || КиноПоиск-Тип релиза: BDRemux 1080p [Eraserhead 1977 1080p Blu-ray AVC LPCM 2.0 (thanks violator99)]
Контейнер: MKV
Видео: MPEG-4 AVC Video, 1920x1080 at 23.976 fps, 25021 kbps
Аудио#1: Russian: 48 kHz, AC3, 2.0 ch, 224 kbps |Визгунов, поздний перевод
Аудио#2: Russian: 48 kHz, АС3, 2.0 ch, 192 kbps |Визгунов, ранний перевод
Аудио#3: English: 48 kHz, LPCM, 2.0 ch, 2304 kbps
Формат субтитров: softsub (SRT)
Сэмпл

Дополнительно

Ранний перевод Визгунова с раздачи DVD9 Oleg39. Поздний перевод доступен благодаря Kabukiman.

MediaInfo

General
Unique ID : 193935952046144934081835818210429160980 (0x91E6B4AAF9F0C4778258B74E5BD2CE14)
Complete name : N:\Rutracker\Голова-ластик\Eraserhead.1977.Criterion.BDRemux. rutracker.mkv
Format : Matroska
Format version : Version 2
File size : 17.2 GiB
Duration : 1h 29mn
Overall bit rate mode : Variable
Overall bit rate : 27.6 Mbps
Movie name : Release for RuTracker
Writing application : mkvmerge v5.0.1 ('Es ist Sommer') built on Nov 6 2011 16:23:40
Writing library : libebml v1.2.2 + libmatroska v1.3.0
Video
ID : 1
Format : AVC
Format/Info : Advanced Video Codec
Format profile : High@L4.1
Format settings, CABAC : Yes
Format settings, ReFrames : 4 frames
Codec ID : V_MPEG4/ISO/AVC
Duration : 1h 29mn
Bit rate mode : Variable
Maximum bit rate : 37.0 Mbps
Width : 1 920 pixels
Height : 1 080 pixels
Display aspect ratio : 16:9
Frame rate mode : Constant
Frame rate : 23.976 fps
Color space : YUV
Chroma subsampling : 4:2:0
Bit depth : 8 bits
Scan type : Progressive
Title : Eraserhead.1977.Criterion.BDRemux. rutracker
Language : English
Default : Yes
Forced : No
Audio #1
ID : 2
Format : AC-3
Format/Info : Audio Coding 3
Mode extension : CM (complete main)
Format settings, Endianness : Big
Codec ID : A_AC3
Duration : 1h 29mn
Bit rate mode : Constant
Bit rate : 224 Kbps
Channel(s) : 2 channels
Channel positions : Front: L R
Sampling rate : 48.0 KHz
Bit depth : 16 bits
Compression mode : Lossy
Stream size : 143 MiB (1%)
Title : avo, Визгунов #1
Language : Russian
Default : Yes
Forced : No
Audio #2
ID : 3
Format : AC-3
Format/Info : Audio Coding 3
Mode extension : CM (complete main)
Format settings, Endianness : Big
Codec ID : A_AC3
Duration : 1h 29mn
Bit rate mode : Constant
Bit rate : 192 Kbps
Channel(s) : 2 channels
Channel positions : Front: L R
Sampling rate : 48.0 KHz
Bit depth : 16 bits
Compression mode : Lossy
Stream size : 123 MiB (1%)
Title : avo, Визгунов #2
Language : Russian
Default : No
Forced : No
Audio #3
ID : 4
Format : PCM
Codec ID : A_PCM/INT/LIT
Duration : 1h 29mn
Bit rate mode : Constant
Channel(s) : 2 channels
Sampling rate : 48.0 KHz
Bit depth : 24 bits
Language : English
Default : No
Forced : No
Text #1
ID : 5
Format : UTF-8
Codec ID : S_TEXT/UTF8
Codec ID/Info : UTF-8 Plain Text
Title : #1
Language : Russian
Default : No
Forced : No
Text #2
ID : 6
Format : UTF-8
Codec ID : S_TEXT/UTF8
Codec ID/Info : UTF-8 Plain Text
Title : #2
Language : Russian
Default : No
Forced : No
Text #3
ID : 7
Format : UTF-8
Codec ID : S_TEXT/UTF8
Codec ID/Info : UTF-8 Plain Text
Language : English
Default : No
Forced : No

Скриншоты

GER vs Criterion



Показать сообщения:    

Текущее время: 04-Дек 00:48

Часовой пояс: UTC + 3


Вы не можете начинать темы
Вы не можете отвечать на сообщения
Вы не можете редактировать свои сообщения
Вы не можете удалять свои сообщения
Вы не можете голосовать в опросах
Вы не можете прикреплять файлы к сообщениям
Вы не можете скачивать файлы