Наследство, или Блин, ребята, гутен таг / Наследство, или Едрёнавошьгутентаг / Dedictvi aneb Kurvahosigutntag / The Inheritance or Fuckoffguysgoodday (Вера Хитилова / Vera Chytilova) [1993, Чехия, комедия, BDRip 720p] VO + Sub Eng, Cze + Original Cze


 

[Цитировать]

Наследство, или Блин, ребята, гутен таг / Dedictví aneb Kurvahosigutntag / Inheritance or Fuckoffguysgoodday, The
Страна: Чехия
Жанр: комедия
Год выпуска: 1993
Продолжительность: 01:58:10
Перевод: Одноголосый закадровый (Ирина Гусева)
Cубтитры: английские,чешские
Оригинальная аудиодорожка: чешский
Режиссер: Вера Хитилова / Vera Chytilova
В ролях: Болек Поливка /Bolek Polivka/, Мирослав Донутил /Miroslav Donutil/, Анна Пантючкова /Anna Pantuckova/, Йозеф Кронер /Jozef Kroner/, Дагмар Вешкранова /Dagmar Veskrnova/, Шарка Войткова /Sarka Vojtkova/, Павел Затлоукал /Pavel Zatloukal/
Описание: Действие происходит в Чехии в период, когда наследникам стали возвращать их собственность. В провинции живет долговязый, глуповатый, но добрый Богуш. Неожиданно из города приезжает доктор Улрич и объявляет, что Богушу возвращается собственность покойного отца - кирпичный завод и дорогая недвижимость в Праге...
Вера Хитилова, преодолев эстетизм и маньеризм ряда своих фильмов 80-х годов, возвращается в «Наследстве» к сатирическому пафосу чешских картин 60-х, включая собственный шедевр «Маргаритки». Так и не исчезнувшее «совковое» сознание, которое высмеивает Хитилова, рождалось и воспитывалось в предшествующие времена, в том числе в годы эйфории и «невыносимой лёгкости бытия» (если пользоваться названием романа Милана Кундеры), в период «пражской весны». И незадачливая блондинка из деревенской пивной в «Наследстве» - словно не устроившаяся в жизни Гана из «Любовных похождений блондинки» Милоша Формана, только много лет спустя. А взрослый оболтус Богуслав из хитиловской комедии - будто уже истрепавшиеся в житейских передрягах формановские юноши Владек или Пётр. Молодая беспечность и праздничность существования превратились с годами в беспробудно-застойную и загульную жизнь - эти «шалопаи со стажем» готовы в один миг промотать целое состояние, любое наследство, доставшееся по праву или же без оного. Они ещё не утратили доброты и чудачества, вызывают симпатию из-за своего жизнерадостного расставания с прошлым - и в данном случае всё делается, по иронии судьбы, почти по Марксу.

Доп. информация:


Тип релиза: BDRip 720p| DON | sample
Контейнер: MKV
Видео: H.264/AVC, 1276x720, 16:9, 25.00fps, 8500 Kbps
Аудио: Russian, DD 2.0, 48 kHz, 192 Kbps
Аудио 2: Czech, DTS 2.0, 48 kHz, 1509 Kbps
Формат субтитров: softsub (SRT)

MI

General
Unique ID                                : 231241292779807425788390626843148158342 (0xADF773F8BF831F4795F07D00A8040586)
Complete name                            : Dedictvi.aneb.Kurvahosigutntag.1992.720p.BluRay.x264.rus.cze.mkv
Format                                   : Matroska
Format version                           : Version 4 / Version 2
File size                                : 8.42 GiB
Duration                                 : 1h 58mn
Overall bit rate                         : 10.2 Mbps
Encoded date                             : UTC 2014-09-28 09:51:28
Writing application                      : mkvmerge v7.1.0 ('Good Love') 64bit built on Jul 27 2014 13:06:55
Writing library                          : libebml v1.3.0 + libmatroska v1.4.1
DURATION                                 : 01:58:10.880000000
NUMBER_OF_FRAMES                         : 221590
NUMBER_OF_BYTES                          : 170181120
_STATISTICS_WRITING_APP                  : mkvmerge v7.1.0 ('Good Love') 64bit built on Jul 27 2014 13:06:55
_STATISTICS_WRITING_DATE_UTC             : 2014-09-28 09:51:28
_STATISTICS_TAGS                         : BPS DURATION NUMBER_OF_FRAMES NUMBER_OF_BYTES
Video
ID                                       : 1
Format                                   : AVC
Format/Info                              : Advanced Video Codec
Format profile                           : High@L4.1
Format settings, CABAC                   : Yes
Format settings, ReFrames                : 9 frames
Codec ID                                 : V_MPEG4/ISO/AVC
Duration                                 : 1h 58mn
Bit rate                                 : 8 500 Kbps
Width                                    : 1 276 pixels
Height                                   : 720 pixels
Display aspect ratio                     : 16:9
Frame rate mode                          : Constant
Frame rate                               : 25.000 fps
Color space                              : YUV
Chroma subsampling                       : 4:2:0
Bit depth                                : 8 bits
Scan type                                : Progressive
Bits/(Pixel*Frame)                       : 0.370
Stream size                              : 6.85 GiB (81%)
Title                                    : Dedictvi.aneb.Kurvahosigutntag.1992.720p.BluRay.DTS.x264-DON
Writing library                          : x264 core 140 r2377 1ca7bb9
Encoding settings                        : cabac=1 / ref=9 / deblock=1:-3:-3 / analyse=0x3:0x133 / me=umh / subme=10 / psy=1 / psy_rd=1.05:0.00 / mixed_ref=1 / me_range=48 / chroma_me=1 / trellis=2 / 8x8dct=1 / cqm=0 / deadzone=21,11 / fast_pskip=0 / chroma_qp_offset=-2 / threads=12 / lookahead_threads=2 / sliced_threads=0 / nr=0 / decimate=0 / interlaced=0 / bluray_compat=0 / constrained_intra=0 / bframes=8 / b_pyramid=2 / b_adapt=2 / b_bias=0 / direct=3 / weightb=1 / open_gop=0 / weightp=2 / keyint=250 / keyint_min=25 / scenecut=40 / intra_refresh=0 / rc_lookahead=60 / rc=2pass / mbtree=0 / bitrate=8500 / ratetol=1.0 / qcomp=0.60 / qpmin=0 / qpmax=69 / qpstep=4 / cplxblur=20.0 / qblur=0.5 / vbv_maxrate=62500 / vbv_bufsize=78125 / nal_hrd=none / filler=0 / ip_ratio=1.30 / pb_ratio=1.20 / aq=1:0.60
Language                                 : Czech
Default                                  : Yes
Forced                                   : No
DURATION                                 : 01:58:08.160000000
NUMBER_OF_FRAMES                         : 177204
NUMBER_OF_BYTES                          : 7530692462
_STATISTICS_WRITING_APP                  : mkvmerge v7.1.0 ('Good Love') 64bit built on Jul 27 2014 13:06:55
_STATISTICS_WRITING_DATE_UTC             : 2014-09-28 09:51:28
_STATISTICS_TAGS                         : BPS DURATION NUMBER_OF_FRAMES NUMBER_OF_BYTES
Audio #1
ID                                       : 2
Format                                   : AC-3
Format/Info                              : Audio Coding 3
Mode extension                           : CM (complete main)
Format settings, Endianness              : Big
Codec ID                                 : A_AC3
Duration                                 : 1h 58mn
Bit rate mode                            : Constant
Bit rate                                 : 192 Kbps
Channel(s)                               : 2 channels
Channel positions                        : Front: L R
Sampling rate                            : 48.0 KHz
Bit depth                                : 16 bits
Compression mode                         : Lossy
Stream size                              : 162 MiB (2%)
Title                                    : VO [Ирина Гусева]
Language                                 : Russian
Default                                  : Yes
Forced                                   : No
Audio #2
ID                                       : 3
Format                                   : DTS
Format/Info                              : Digital Theater Systems
Mode                                     : 16
Format settings, Endianness              : Big
Codec ID                                 : A_DTS
Duration                                 : 1h 58mn
Bit rate mode                            : Constant
Bit rate                                 : 1 509 Kbps
Channel(s)                               : 2 channels
Channel positions                        : Front: L R
Sampling rate                            : 48.0 KHz
Bit depth                                : 24 bits
Compression mode                         : Lossy
Stream size                              : 1.25 GiB (15%)
Language                                 : Czech
Default                                  : No
Forced                                   : No
Text #1
ID                                       : 4
Format                                   : UTF-8
Codec ID                                 : S_TEXT/UTF8
Codec ID/Info                            : UTF-8 Plain Text
Language                                 : English
Default                                  : No
Forced                                   : No
Text #2
ID                                       : 5
Format                                   : UTF-8
Codec ID                                 : S_TEXT/UTF8
Codec ID/Info                            : UTF-8 Plain Text
Title                                    : SDH
Language                                 : Czech
Default                                  : No
Forced                                   : No
Menu
00:00:00.000                             : cs:00:00:00.000
00:06:30.240                             : cs:00:06:30.240
00:12:03.840                             : cs:00:12:03.840
00:15:46.560                             : cs:00:15:46.560
00:22:49.440                             : cs:00:22:49.440
00:26:43.200                             : cs:00:26:43.200
00:34:54.240                             : cs:00:34:54.240
00:40:53.280                             : cs:00:40:53.280
00:46:15.360                             : cs:00:46:15.360
00:53:14.880                             : cs:00:53:14.880
00:59:28.800                             : cs:00:59:28.800
01:03:59.520                             : cs:01:03:59.520
01:11:09.120                             : cs:01:11:09.120
01:16:47.520                             : cs:01:16:47.520
01:24:06.240                             : cs:01:24:06.240
01:28:32.160                             : cs:01:28:32.160
01:36:07.200                             : cs:01:36:07.200
01:41:00.000                             : cs:01:41:00.000
01:45:23.040                             : cs:01:45:23.040
01:50:30.240                             : cs:01:50:30.240
01:55:47.520                             : cs:01:55:47.520

Скриншоты




Показать сообщения:    

Текущее время: 08-Дек 03:15

Часовой пояс: UTC + 3


Вы не можете начинать темы
Вы не можете отвечать на сообщения
Вы не можете редактировать свои сообщения
Вы не можете удалять свои сообщения
Вы не можете голосовать в опросах
Вы не можете прикреплять файлы к сообщениям
Вы не можете скачивать файлы