Такая красотка, как я / Une belle fille comme moi / Such a Gorgeous Kid Like Me / A Gorgeous Girl Like Me (Франсуа Трюффо / François Truffaut) [1972, Франция, комедия, криминал, BDRemux 1080p] 2x MVO (Кармен, ?) + Original Fre + Sub (Rus, Eng)


 

[Цитировать]

Такая красотка, как я / Une belle fille comme moi- Год выпуска: 1972
Страна: Франция
Жанр: черная комедия, криминал
Продолжительность: 01:38:07
Перевод 1: Профессиональный (многоголосый закадровый) Кармен Видео
Перевод 2: Профессиональный (многоголосый закадровый)
Оригинальная аудиодорожка: Французская
Cубтитры: Русские (R5), английские-Режиссер: Франсуа Трюффо / François Truffaut
В ролях: Бернадетт Лафон, Клод Брассёр, Шарль Деннер, Ги Маршан, Андре Дюссолье, Анн Крейс, Филипп Леотар, Жильбер Женья, Мишель Дилэй, Даниэль Жирар-Описание:
По роману Генри Фаррелла.
Молодой социолог Станислас Превин пишет диссертацию о женской преступности. Ему разрешают встретиться и взять интервью у преступницы, которая отбывает тюремный срок за убийство. Камилла Блисс, так зовут заключённую, рассказывает Станисласу всю свою жизнь и историю своих любовных похождений. Она пристраивается по ходу дела, где сможет и к кому сможет, лишь бы у того были деньги.-За "Кармен" спасибо L. Lacombe, за дорожку №2 – Godspeed You.
| IMDb | Сэмпл-Качество: BDRemux 1080p (Une belle fille comme moi 1972 1080p GBR Blu-ray AVC LPCM 2.0-ESiR, thx DBaT)
Контейнер: MKV
Видео: AVC, 1920x1080 (1.33:1), 24 fps, 24998 kbps
Аудио 1: Русский AС3, 2.0, 48 kHz, 192 kbps — Кармен Видео
Аудио 2: Русский AС3, 2.0, 48 kHz, 192 kbps — MVO
Аудио 3: Французский DTS-HD MA 2.0, 48 kHz, 882 kbps, 16-bit (DTS Core: 2.0, 48 kHz, 768 kbps, 16-bit)
Формат субтитров: softsub (SRT)

Скриншоты


MI

General
Unique ID : 224146057412180216213404070976473402418 (0xA8A0F5DC07C15728A52EBACE79F20C32)
Complete name : Une.belle.fille.comme.moi.1972.1080p.Remux.mkv
Format : Matroska
Format version : Version 2
File size : 18.0 GiB
Duration : 1h 38mn
Overall bit rate mode : Variable
Overall bit rate : 26.3 Mbps
Movie name : Une belle fille comme moi / Такая красотка, как я (1972) – RuTracker
Encoded date : UTC 2014-09-27 08:52:52
Writing application : mkvmerge v7.0.0 ('Where We Going') 64bit built on Jun 9 2014 15:16:27
Writing library : libebml v1.3.0 + libmatroska v1.4.1
Attachment : Yes
Video
ID : 1
Format : AVC
Format/Info : Advanced Video Codec
Format profile : High@L4.1
Format settings, CABAC : Yes
Format settings, ReFrames : 4 frames
Codec ID : V_MPEG4/ISO/AVC
Duration : 1h 38mn
Bit rate mode : Variable
Maximum bit rate : 35.0 Mbps
Width : 1 920 pixels
Height : 1 080 pixels
Display aspect ratio : 16:9
Frame rate mode : Constant
Frame rate : 24.000 fps
Standard : NTSC
Color space : YUV
Chroma subsampling : 4:2:0
Bit depth : 8 bits
Scan type : Progressive
Title : Une belle fille comme moi 1972 1080p GBR Blu-ray AVC LPCM 2.0-ESiR
Language : English
Default : Yes
Forced : No
Color primaries : BT.709
Transfer characteristics : BT.709
Matrix coefficients : BT.709
Audio #1
ID : 2
Format : AC-3
Format/Info : Audio Coding 3
Mode extension : CM (complete main)
Format settings, Endianness : Big
Codec ID : A_AC3
Duration : 1h 38mn
Bit rate mode : Constant
Bit rate : 192 Kbps
Channel(s) : 2 channels
Channel positions : Front: L R
Sampling rate : 48.0 KHz
Bit depth : 16 bits
Compression mode : Lossy
Stream size : 135 MiB (1%)
Title : MVO – Кармен Видео
Language : Russian
Default : Yes
Forced : No
Audio #2
ID : 3
Format : AC-3
Format/Info : Audio Coding 3
Mode extension : CM (complete main)
Format settings, Endianness : Big
Codec ID : A_AC3
Duration : 1h 38mn
Bit rate mode : Constant
Bit rate : 192 Kbps
Channel(s) : 2 channels
Channel positions : Front: L R
Sampling rate : 48.0 KHz
Bit depth : 16 bits
Compression mode : Lossy
Stream size : 135 MiB (1%)
Title : MVO
Language : Russian
Default : No
Forced : No
Audio #3
ID : 4
Format : DTS
Format/Info : Digital Theater Systems
Format profile : MA / Core
Mode : 16
Format settings, Endianness : Big
Codec ID : A_DTS
Duration : 1h 38mn
Bit rate mode : Variable
Bit rate : Unknown / 768 Kbps
Channel(s) : 2 channels
Channel positions : Front: L R
Sampling rate : 48.0 KHz
Bit depth : 16 bits
Compression mode : Lossless / Lossy
Title : Original
Language : French
Default : No
Forced : No
Text #1
ID : 5
Format : UTF-8
Codec ID : S_TEXT/UTF8
Codec ID/Info : UTF-8 Plain Text
Title : R5
Language : Russian
Default : No
Forced : No
Text #2
ID : 6
Format : UTF-8
Codec ID : S_TEXT/UTF8
Codec ID/Info : UTF-8 Plain Text
Language : English
Default : No
Forced : No
Menu
00:00:00.000 : en:Chapter 01
00:11:06.375 : en:Chapter 02
00:21:01.458 : en:Chapter 03
00:32:02.458 : en:Chapter 04
00:43:05.708 : en:Chapter 05
00:50:52.083 : en:Chapter 06
00:58:45.375 : en:Chapter 07
01:05:04.833 : en:Chapter 08
01:10:28.250 : en:Chapter 09
01:18:35.541 : en:Chapter 10
01:27:41.833 : en:Chapter 11
01:33:55.250 : en:Chapter 12



Показать сообщения:    

Текущее время: 10-Дек 10:01

Часовой пояс: UTC + 3


Вы не можете начинать темы
Вы не можете отвечать на сообщения
Вы не можете редактировать свои сообщения
Вы не можете удалять свои сообщения
Вы не можете голосовать в опросах
Вы не можете прикреплять файлы к сообщениям
Вы не можете скачивать файлы