Такая красотка, как я / Une belle fille comme moi / Such a Gorgeous Kid Like Me / A Gorgeous Girl Like Me (Франсуа Трюффо / François Truffaut) [1972 г., Франция, комедия, криминал, BDRip 720p] 2x MVO (Кармен, ?) + Original Fre + Sub (Rus, Eng)


 

[Цитировать]

Такая красотка, как я / Une belle fille comme moi- Год выпуска: 1972
Страна: Франция
Жанр: черная комедия, криминал
Продолжительность: 01:38:07
Перевод 1: Профессиональный (многоголосый закадровый) Кармен Видео
Перевод 2: Профессиональный (многоголосый закадровый)
Оригинальная аудиодорожка: Французская
Cубтитры: Русские (R5), английские-Режиссер: Франсуа Трюффо / François Truffaut
В ролях: Бернадетт Лафон, Клод Брассёр, Шарль Деннер, Ги Маршан, Андре Дюссолье, Анн Крейс, Филипп Леотар, Жильбер Женья, Мишель Дилэй, Даниэль Жирар-Описание:
По роману Генри Фаррелла.
Молодой социолог Станислас Превин пишет диссертацию о женской преступности. Ему разрешают встретиться и взять интервью у преступницы, которая отбывает тюремный срок за убийство. Камилла Блисс, так зовут заключённую, рассказывает Станисласу всю свою жизнь и историю своих любовных похождений. Она пристраивается по ходу дела, где сможет и к кому сможет, лишь бы у того были деньги.-За "Кармен" спасибо L. Lacombe, за дорожку №2 – Godspeed You.
| IMDb | Сэмпл-Качество: BDRip 720p (FAPCAVE)
Контейнер: MKV
Видео: x264, 960x720 (1.33:1), 24 fps, 4139 kbps
Аудио 1: Русский AС3, 2.0, 48 kHz, 192 kbps — Кармен Видео
Аудио 2: Русский AС3, 2.0, 48 kHz, 192 kbps — MVO
Аудио 3: Французский FLAC 2.0, 48 kHz, 400 kbps, 16-bit
Формат субтитров: softsub (SRT)

Скриншоты


MI

General
Unique ID : 181773681641866589241145248485526235156 (0x88C05670B9CA3F229F936A1DF5386814)
Complete name : Une.belle.fille.comme.moi_a.gorgeous.girl.like.me.1972.720p.bluray.x264-fapcave.mkv
Format : Matroska
Format version : Version 2
File size : 3.38 GiB
Duration : 1h 38mn
Overall bit rate mode : Variable
Overall bit rate : 4 926 Kbps
Movie name : Une belle fille comme moi / Такая красотка, как я (1972) – RuTracker
Encoded date : UTC 2014-09-27 08:35:29
Writing application : mkvmerge v7.0.0 ('Where We Going') 64bit built on Jun 9 2014 15:16:27
Writing library : libebml v1.3.0 + libmatroska v1.4.1
Attachment : Yes
Video
ID : 1
Format : AVC
Format/Info : Advanced Video Codec
Format profile : High@L4.1
Format settings, CABAC : Yes
Format settings, ReFrames : 5 frames
Codec ID : V_MPEG4/ISO/AVC
Duration : 1h 38mn
Nominal bit rate : 4 140 Kbps
Width : 960 pixels
Height : 720 pixels
Display aspect ratio : 4:3
Frame rate mode : Constant
Frame rate : 24.000 fps
Color space : YUV
Chroma subsampling : 4:2:0
Bit depth : 8 bits
Scan type : Progressive
Bits/(Pixel*Frame) : 0.250
Title : a.gorgeous.girl.like.me.1972.720p.bluray.x264-fapcave
Writing library : x264 core 142 r2453 ea0ca51
Encoding settings : cabac=1 / ref=5 / deblock=1:0:0 / analyse=0x3:0x133 / me=umh / subme=7 / psy=1 / psy_rd=1.00:0.00 / mixed_ref=1 / me_range=16 / chroma_me=1 / trellis=1 / 8x8dct=1 / cqm=0 / deadzone=21,11 / fast_pskip=0 / chroma_qp_offset=-2 / threads=12 / lookahead_threads=2 / sliced_threads=0 / nr=0 / decimate=1 / interlaced=0 / bluray_compat=0 / constrained_intra=0 / bframes=3 / b_pyramid=2 / b_adapt=2 / b_bias=0 / direct=3 / weightb=1 / open_gop=0 / weightp=2 / keyint=250 / keyint_min=24 / scenecut=40 / intra_refresh=0 / rc_lookahead=50 / rc=2pass / mbtree=1 / bitrate=4140 / ratetol=1.0 / qcomp=0.60 / qpmin=0 / qpmax=69 / qpstep=4 / cplxblur=20.0 / qblur=0.5 / ip_ratio=1.40 / aq=1:1.00
Language : English
Default : Yes
Forced : No
Audio #1
ID : 2
Format : AC-3
Format/Info : Audio Coding 3
Mode extension : CM (complete main)
Format settings, Endianness : Big
Codec ID : A_AC3
Duration : 1h 38mn
Bit rate mode : Constant
Bit rate : 192 Kbps
Channel(s) : 2 channels
Channel positions : Front: L R
Sampling rate : 48.0 KHz
Bit depth : 16 bits
Compression mode : Lossy
Stream size : 135 MiB (4%)
Title : MVO – Кармен Видео
Language : Russian
Default : Yes
Forced : No
Audio #2
ID : 3
Format : AC-3
Format/Info : Audio Coding 3
Mode extension : CM (complete main)
Format settings, Endianness : Big
Codec ID : A_AC3
Duration : 1h 38mn
Bit rate mode : Constant
Bit rate : 192 Kbps
Channel(s) : 2 channels
Channel positions : Front: L R
Sampling rate : 48.0 KHz
Bit depth : 16 bits
Compression mode : Lossy
Stream size : 135 MiB (4%)
Title : MVO
Language : Russian
Default : No
Forced : No
Audio #3
ID : 4
Format : FLAC
Format/Info : Free Lossless Audio Codec
Codec ID : A_FLAC
Duration : 1h 38mn
Bit rate mode : Variable
Channel(s) : 2 channels
Sampling rate : 48.0 KHz
Bit depth : 16 bits
Title : Original
Writing library : libFLAC 1.2.1 (UTC 2007-09-17)
Language : French
Default : No
Forced : No
Text #1
ID : 5
Format : UTF-8
Codec ID : S_TEXT/UTF8
Codec ID/Info : UTF-8 Plain Text
Title : R5
Language : Russian
Default : No
Forced : No
Text #2
ID : 6
Format : UTF-8
Codec ID : S_TEXT/UTF8
Codec ID/Info : UTF-8 Plain Text
Language : English
Default : No
Forced : No
Menu
00:00:00.000 : en:Chapter 01
00:11:06.375 : en:Chapter 02
00:21:01.458 : en:Chapter 03
00:32:02.458 : en:Chapter 04
00:43:05.708 : en:Chapter 05
00:50:52.083 : en:Chapter 06
00:58:45.375 : en:Chapter 07
01:05:04.833 : en:Chapter 08
01:10:28.250 : en:Chapter 09
01:18:35.541 : en:Chapter 10
01:27:41.833 : en:Chapter 11
01:33:55.250 : en:Chapter 12



Показать сообщения:    

Текущее время: 09-Дек 01:08

Часовой пояс: UTC + 3


Вы не можете начинать темы
Вы не можете отвечать на сообщения
Вы не можете редактировать свои сообщения
Вы не можете удалять свои сообщения
Вы не можете голосовать в опросах
Вы не можете прикреплять файлы к сообщениям
Вы не можете скачивать файлы