Королева Марго / La Reine Margot / Queen Margot (Патрис Шеро / Patrice Chéreau) [1994, Францмя, Италия, Германия, Драма, мелодрама, биография, история, BDRip 720p] [New Director's Cut] AVO (Ю. Сербин) + Sub Rus, Eng, Fre + Original Fre


 

[Цитировать]

-Королева Марго / La Reine Margot / Queen Margot [New Director's Cut]-- Страна: Францмя, Италия, Германия
Студия: Renn Productions, France 2 Cinéma, D.A. Films See
Жанр: Драма, мелодрама, биография, история
Год выпуска: 1994
Продолжительность: 02:38:37-Перевод: Авторский (одноголосый закадровый) Ю. Сербин
Cубтитры: Русские, английские, французские
Оригинальная аудиодорожка: французский-Режиссер: Патрис Шеро / Patrice Chéreau-В ролях: Изабель Аджани, Даниель Отой, Жан-Юг Англад, Венсан Перес, Вирна Лизи, Доминик Блан, Паскаль Греггори, Клаудио Амендола, Мигель Бозе, Азия Ардженто, Томас Кретчманн, Жан-Клод Бриали, Жан-Филипп Экоффе, Йохан Лейсен, Лоре Марсак, Алексис Нитцер, Эммануель Салинджер, Барбе Шрёдер, Жан-Марк Стель, Жюльен Рассам, Бруно Тодескини, Толстый, Бернар Верли, Даниель Бретон, Валерия Бруни Тедески, Дёрте Лиссевски, Марк Ситти-Описание: Август 1572 года. Францию раздирает религиозная война. Чтобы восстановить мир в стране, прекрасная и гордая принцесса Марго, сестра католического короля Карла IX, должна выйти замуж за протестанта Генриха Наваррского. А после свадьбы произошла кровавая резня Варфоломеевской ночи, организованная жестокой и коварной Екатериной Медичи. Погибли тысячи протестантов, а один из них, тяжело раненный дворянин по имени Ла Моль, в отчаянной попытке спасти свою жизнь постучался в дверь Марго.-Тип релиза: BDRip 720p SbR
Контейнер: MKV
Видео: 1280x692 at 23.976 fps, x264@L4.1, ~11990 kbps avg
Аудио 1: Russian: 48 kHz, AC3, 3/2 (L,C,R,l,r) + LFE ch, ~640 kbps avg |Одноголосый закадровый, Юрий Сербин|
Аудио 2: French: 48 kHz, AC3, 3/2 (L,C,R,l,r) + LFE ch, ~640 kbps avg
Формат субтитров: softsub (SRT)-Все раздачи фильма / Сэмпл / ImDB / Кинопоиск-

Награды

Британская академия, 1996 год
Номинации (1):
Лучший фильм на иностранном языке
Оскар, 1995 год
Номинации (1):
Лучшие костюмы
Золотой глобус, 1995 год
Номинации (1):
Лучший фильм на иностранном языке— «Франция»
Сезар, 1995 год
Победитель (5):
Лучшая актриса (Изабель Аджани)
Лучший актер второго плана (Жан-Юг Англад)
Лучшая актриса второго плана (Вирна Лизи)
Лучшая работа оператора
Лучшие костюмы
Номинации (7):
Лучший фильм
Лучшая актриса второго плана (Доминик Блан)
Лучший режиссер (Патрис Шеро)
Лучший адаптированный или оригинальный сценарий
Лучший монтаж
Лучший саундтрек
Лучшие декорации
Каннский кинофестиваль, 1994 год
Победитель (2):
Приз жюри
Серебряная премия за лучшую женскую роль (Вирна Лизи)
Номинации (1):
Золотая пальмовая ветвь

Дополнительно

- Исходный диск приобретен в рамках сервиса "Копилка: Помоги с Blu-ray" HDCLUB. Благодарим: Latander, tambov68, exact.
- Перевод Юрия Сербина выполнен спонсорами ресурса e180: Hattori Hanzo, Некрасов, denis_mgn_1987, Nadoelo, zeleniy, motel, Foots, Партизан, muha, Kastro, luka69, chontvari, Ken, Drodder, uchitel538, minnesotawild, Roman Lee, Vladimir, Эдуард, jorn2, kondratzx, dsk71, GKillah, carnivale, Tio. ВСЕМ СПАСИБО!
- The new Director's Cut of La Reine Margot reinstates footage that is not present on Pathe's current R2 DVD release of the film. For example, the short sequence in which Margot and La Mole make love and are then seen wrapped in a red blanket is not present on Pathe's DVD release (portion of it is on the R1 DVD release).

MediaInfo

Общее
Уникальный идентификатор                 : 239006083103873699000874451599168784326 (0xB3CEE5B1216215969AF75C59AD9A47C6)
Полное имя                               : La.reine.Margot.1994.720p.BluRay.Rus.Fre.SbR.mkv
Формат                                   : Matroska
Версия формата                           : Version 4 / Version 2
Размер файла                             : 14,7 Гбайт
Продолжительность                        : 2 ч. 38 м.
Общий поток                              : 13,3 Мбит/сек
Дата кодирования                         : UTC 2014-09-26 09:57:01
Программа кодирования                    : mkvmerge v6.9.1 ('Blue Panther') 64bit built on Apr 18 2014 18:23:38
Библиотека кодирования                   : libebml v1.3.0 + libmatroska v1.4.1
Видео
Идентификатор                            : 1
Формат                                   : AVC
Формат/Информация                        : Advanced Video Codec
Профиль формата                          : High@L4.1
Параметр CABAC формата                   : Да
Параметр ReFrames формата                : 9 кадров
Идентификатор кодека                     : V_MPEG4/ISO/AVC
Продолжительность                        : 2 ч. 38 м.
Битрейт                                  : 12,0 Мбит/сек
Ширина                                   : 1280 пикселей
Высота                                   : 692 пикселя
Соотношение сторон                       : 1,85:1
Режим частоты кадров                     : Постоянный
Частота кадров                           : 23,976 кадра/сек
Цветовое пространство                    : YUV
Субдискретизация насыщенности            : 4:2:0
Битовая глубина                          : 8 бит
Тип развёртки                            : Прогрессивная
Бит/(Пиксели*Кадры)                      : 0.565
Размер потока                            : 13,0 Гбайт (88%)
Библиотека кодирования                   : x264 core 142 r2431+42 c69a006 tMod [8-bit@all X86_64]
Настройки программы                      : cabac=1 / ref=9 / deblock=1:-3:-3 / analyse=0x3:0x133 / me=esa / subme=10 / psy=1 / fade_compensate=0.00 / psy_rd=1.10:0.70 / mixed_ref=1 / me_range=24 / chroma_me=1 / trellis=2 / 8x8dct=1 / cqm=0 / deadzone=21,11 / fast_pskip=0 / chroma_qp_offset=-4 / threads=6 / lookahead_threads=1 / sliced_threads=0 / nr=0 / decimate=1 / interlaced=0 / bluray_compat=0 / constrained_intra=0 / fgo=0 / bframes=9 / b_pyramid=2 / b_adapt=2 / b_bias=0 / direct=3 / weightb=1 / open_gop=0 / weightp=2 / keyint=250 / keyint_min=23 / scenecut=40 / intra_refresh=0 / rc_lookahead=40 / rc=2pass / mbtree=0 / bitrate=12000 / ratetol=1.0 / qcomp=0.70 / qpmin=0:0:0 / qpmax=69:69:69 / qpstep=4 / cplxblur=20.0 / qblur=0.5 / vbv_maxrate=62500 / vbv_bufsize=78125 / nal_hrd=none / filler=0 / ip_ratio=1.30 / pb_ratio=1.20 / aq=1:0.80 / aq-sensitivity=10.00 / aq-factor=1.00:1.00:1.00 / aq2=0 / aq3=0
Язык                                     : English
Default                                  : Да
Forced                                   : Нет
Коэффициенты матрицы                     : BT.709
Аудио #1
Идентификатор                            : 2
Формат                                   : AC-3
Формат/Информация                        : Audio Coding 3
Расширение режима                        : CM (complete main)
Параметр Endianness формата              : Big
Идентификатор кодека                     : A_AC3
Продолжительность                        : 2 ч. 38 м.
Вид битрейта                             : Постоянный
Битрейт                                  : 640 Кбит/сек
Каналы                                   : 6 каналов
Расположение каналов                     : Front: L C R, Side: L R, LFE
Частота                                  : 48,0 КГц
Битовая глубина                          : 16 бит
Метод сжатия                             : С потерями
Размер потока                            : 726 Мбайт (5%)
Заголовок                                : Одноголосый закадровый, Ю.Сербин
Язык                                     : Russian
Default                                  : Да
Forced                                   : Нет
Аудио #2
Идентификатор                            : 3
Формат                                   : AC-3
Формат/Информация                        : Audio Coding 3
Расширение режима                        : CM (complete main)
Параметр Endianness формата              : Big
Идентификатор кодека                     : A_AC3
Продолжительность                        : 2 ч. 38 м.
Вид битрейта                             : Постоянный
Битрейт                                  : 640 Кбит/сек
Каналы                                   : 6 каналов
Расположение каналов                     : Front: L C R, Side: L R, LFE
Частота                                  : 48,0 КГц
Битовая глубина                          : 16 бит
Метод сжатия                             : С потерями
Размер потока                            : 726 Мбайт (5%)
Язык                                     : French
Default                                  : Нет
Forced                                   : Нет
Текст #1
Идентификатор                            : 4
Формат                                   : UTF-8
Идентификатор кодека                     : S_TEXT/UTF8
Идентификатор кодека/Информация          : UTF-8 Plain Text
Язык                                     : Russian
Default                                  : Нет
Forced                                   : Нет
Текст #2
Идентификатор                            : 5
Формат                                   : UTF-8
Идентификатор кодека                     : S_TEXT/UTF8
Идентификатор кодека/Информация          : UTF-8 Plain Text
Язык                                     : English
Default                                  : Нет
Forced                                   : Нет
Текст #3
Идентификатор                            : 6
Формат                                   : UTF-8
Идентификатор кодека                     : S_TEXT/UTF8
Идентификатор кодека/Информация          : UTF-8 Plain Text
Язык                                     : French
Default                                  : Нет
Forced                                   : Нет
Меню
00:00:00.000                             : fr:Le mariage
00:09:56.304                             : fr:Les réjouissancer
00:23:43.130                             : fr:Une nuit de noces
00:37:56.316                             : fr:L'assassianat de Coligny
00:44:18.865                             : fr:La Saint - Barthélemy
01:05:28.174                             : fr:Conversion de Navarre
01:12:13.871                             : fr:L'exil
01:17:30.104                             : fr:Au Louvre
01:26:51.623                             : fr:Retour à Paris
01:31:25.188                             : fr:Les retrouvailles
01:34:14.774                             : fr:Préparatifs et chasse
01:36:59.522                             : fr:Tentative de fuite
01:42:55.378                             : fr:Charles et Henri
01:49:21.764                             : fr:Le serment
01:52:50.389                             : fr:Les manœuvres d'une mère
02:04:31.714                             : fr:La longue agonie de Charles
02:13:09.440                             : fr:Un nou veau baptême
02:17:17.479                             : fr:Ultime sortie d'un roi
02:24:14.187                             : fr:L'exécution
02:30:37.946                             : fr:Margot



Показать сообщения:    

Текущее время: 09-Дек 01:08

Часовой пояс: UTC + 3


Вы не можете начинать темы
Вы не можете отвечать на сообщения
Вы не можете редактировать свои сообщения
Вы не можете удалять свои сообщения
Вы не можете голосовать в опросах
Вы не можете прикреплять файлы к сообщениям
Вы не можете скачивать файлы