Голова-ластик / Eraserhead (Дэвид Линч / David Lynch) [1977, США, драма, сюрреализм, BDRip 720p] [Criterion Collection] AVO (Визгунов) + Sub (2x Rus, Eng) + Original Eng


 

[Цитировать]

Голова-ластик / Eraserhead
Страна: США
Жанр: драма, сюрреализм
Год выпуска: 1977
Продолжительность: 01:29:18
Перевод: Авторский (одноголосый закадровый) Сергей Визгунов
Cубтитры: русские, английские
Оригинальная аудиодорожка: английский-Режиссер: Дэвид Линч / David Lynch
В ролях: Джек Нэнс, Шарлотта Стюарт, Аллен Джозеф, Джинна Бэйтс, Джудит Робертс
Описание: "Сон о темных и тревожных вещах", так характеризует свой первый полнометражный фильм автор.
В обстановке постиндустриального запустения проживает герой, странного вида человек по имени Генри Спенсер, его соседка как-то сообщает, что его девушка Мэри приглашает его на обед с родителями. Во время обеда Генри узнает, что он отец недоношенного ребенка. Генри забирает девушку с ребенком к себе, но она вскоре сбегает, не выдерживая плача младенца. Вид ребенка становится все более отталкивающим...
IMDb || КиноПоиск-Тип релиза: BDRip 720p [DON]
Контейнер: MKV
Видео: x264/AVC, 1280x692 at 23.976 fps, 4225 kbps
Аудио#1: Russian: 48 kHz, AC3, 2.0 ch, 224 kbps |Визгунов, поздний перевод
Аудио#2: Russian: 48 kHz, АС3, 2.0 ch, 192 kbps |Визгунов, ранний перевод
Аудио#3: English: 48 kHz, FLAC, 2.0 ch, 552 kbps
Формат субтитров: softsub (SRT)
Сэмпл

Дополнительно

Ранний перевод Визгунова с раздачи DVD9 Oleg39. Поздний перевод доступен благодаря Kabukiman.

MediaInfo

General
Unique ID : 213350148674017644484940478680326099822 (0xA081BE7697A570B8B6CC6958803A536E)
Complete name : N:\Rutracker\Голова-ластик\Eraserhead.1977.Criterion.720p-DON. rutracker.mkv
Format : Matroska
Format version : Version 2
File size : 3.29 GiB
Duration : 1h 29mn
Overall bit rate mode : Variable
Overall bit rate : 5 278 Kbps
Movie name : Release for RuTracker
Writing application : mkvmerge v5.0.1 ('Es ist Sommer') built on Nov 6 2011 16:23:40
Writing library : libebml v1.2.2 + libmatroska v1.3.0
Video
ID : 1
Format : AVC
Format/Info : Advanced Video Codec
Format profile : High@L4.1
Format settings, CABAC : Yes
Format settings, ReFrames : 9 frames
Codec ID : V_MPEG4/ISO/AVC
Duration : 1h 29mn
Width : 1 280 pixels
Height : 692 pixels
Display aspect ratio : 1.85:1
Frame rate mode : Constant
Frame rate : 23.976 fps
Color space : YUV
Chroma subsampling : 4:2:0
Bit depth : 8 bits
Scan type : Progressive
Title : Eraserhead.1977.Criterion.720p-DON. rutracker
Writing library : x264 core 142 r2479 dd79a61
Encoding settings : cabac=1 / ref=9 / deblock=1:-3:-3 / analyse=0x3:0x133 / me=tesa / subme=11 / psy=1 / psy_rd=1.05:0.00 / mixed_ref=1 / me_range=32 / chroma_me=1 / trellis=2 / 8x8dct=1 / cqm=0 / deadzone=21,11 / fast_pskip=0 / chroma_qp_offset=-2 / threads=12 / lookahead_threads=2 / sliced_threads=0 / nr=0 / decimate=0 / interlaced=0 / bluray_compat=0 / constrained_intra=0 / bframes=8 / b_pyramid=2 / b_adapt=2 / b_bias=0 / direct=3 / weightb=1 / open_gop=0 / weightp=2 / keyint=250 / keyint_min=23 / scenecut=40 / intra_refresh=0 / rc_lookahead=60 / rc=crf / mbtree=0 / crf=16.5 / qcomp=0.50 / qpmin=0 / qpmax=69 / qpstep=4 / vbv_maxrate=50000 / vbv_bufsize=62500 / crf_max=0.0 / nal_hrd=none / filler=0 / ip_ratio=1.30 / pb_ratio=1.20 / aq=1:0.70
Language : English
Default : Yes
Forced : No
Audio #1
ID : 2
Format : AC-3
Format/Info : Audio Coding 3
Mode extension : CM (complete main)
Format settings, Endianness : Big
Codec ID : A_AC3
Duration : 1h 29mn
Bit rate mode : Constant
Bit rate : 224 Kbps
Channel(s) : 2 channels
Channel positions : Front: L R
Sampling rate : 48.0 KHz
Bit depth : 16 bits
Compression mode : Lossy
Stream size : 143 MiB (4%)
Title : avo, Визгунов #1
Language : Russian
Default : Yes
Forced : No
Audio #2
ID : 3
Format : AC-3
Format/Info : Audio Coding 3
Mode extension : CM (complete main)
Format settings, Endianness : Big
Codec ID : A_AC3
Duration : 1h 29mn
Bit rate mode : Constant
Bit rate : 192 Kbps
Channel(s) : 2 channels
Channel positions : Front: L R
Sampling rate : 48.0 KHz
Bit depth : 16 bits
Compression mode : Lossy
Stream size : 123 MiB (4%)
Title : avo, Визгунов #2
Language : Russian
Default : No
Forced : No
Audio #3
ID : 4
Format : FLAC
Format/Info : Free Lossless Audio Codec
Codec ID : A_FLAC
Duration : 1h 29mn
Bit rate mode : Variable
Channel(s) : 2 channels
Sampling rate : 48.0 KHz
Bit depth : 16 bits
Writing library : libFLAC 1.2.1 (UTC 2007-09-17)
Language : English
Default : No
Forced : No
Text #1
ID : 5
Format : UTF-8
Codec ID : S_TEXT/UTF8
Codec ID/Info : UTF-8 Plain Text
Title : #1
Language : Russian
Default : No
Forced : No
Text #2
ID : 6
Format : UTF-8
Codec ID : S_TEXT/UTF8
Codec ID/Info : UTF-8 Plain Text
Title : #2
Language : Russian
Default : No
Forced : No
Text #3
ID : 7
Format : UTF-8
Codec ID : S_TEXT/UTF8
Codec ID/Info : UTF-8 Plain Text
Language : English
Default : No
Forced : No

Скриншоты

GER vs Criterion ________________________________________



Показать сообщения:    

Текущее время: 03-Дек 09:43

Часовой пояс: UTC + 3


Вы не можете начинать темы
Вы не можете отвечать на сообщения
Вы не можете редактировать свои сообщения
Вы не можете удалять свои сообщения
Вы не можете голосовать в опросах
Вы не можете прикреплять файлы к сообщениям
Вы не можете скачивать файлы