Гранд Централ. Любовь на атомы / Grand Central (Ребекка Злотовски / Rebecca Zlotowski) [2013, Австрия, Франция, драма, мелодрама, HDTV 1080i] MVO


 

[Цитировать]

Гранд Централ. Любовь на атомы / Grand Central Страна: Австрия, Франция
Жанр: драма, мелодрама
Год выпуска: 2013
Продолжительность: 01:30:41
Перевод: Профессиональный (многоголосый закадровый)
Cубтитры: нет
Режиссер: Ребекка Злотовски / Rebecca Zlotowski
В ролях: Тахар Рахим, Леа Сейду, Оливье Гурме, Дени Меноше, Жоан Либеро, Нозха Кхуадра, Ноель Перез Бискаярт, Камилль Лелуш, Гийом Вердье, Мари Берто
Описание:
Гари — ловкий молодой человек, который все схватывает на лету. Он из тех, кто всего достигает сам. Перебиваясь случайными заработками, однажды он получает работу на атомной станции. Здесь, рядом с реакторами, в атмосфере с повышенной дозой радиоактивности, он находит все, что искал: деньги, товарищей, семью. Здесь же встречает жену Тони Кароль, в которую влюбляется. Запретная любовь и радиация постепенно отравляют Гари. Каждый новый день несет угрозу.
Доп. информация:
премьера (мир) ---> 18 мая 2013
премьера (РФ) ---> 16 января 2014

Сэмпл: http://sendfile.su/1026938
Тип релиза: HDTV 1080i
Контейнер: TS
Видео: AVC/H.264, PAL, 1920x1080 (16:9), 8604 Кбит/сек, 25.000 fps
Аудио: русский, MP-2, 48000 Hz, 192 Кбит/сек, 2 ch

MediaInfo

Общее
Идентификатор : 1 (0x1)
Полное имя : D:\Гранд Централ. Любовь на атомы..ts
Формат : MPEG-TS
Размер файла : 5,86 Гбайт
Продолжительность : 1 ч. 30 м.
Режим общего битрейта : Переменный
Общий поток : 9255 Кбит/сек
Видео
Идентификатор : 4113 (0x1011)
Идентификатор меню : 1 (0x1)
Формат : AVC
Формат/Информация : Advanced Video Codec
Профиль формата : Main@L4.0
Параметр CABAC формата : Да
Параметр ReFrames формата : 3 кадра
Идентификатор кодека : 27
Продолжительность : 1 ч. 30 м.
Вид битрейта : Переменный
Битрейт : 8604 Кбит/сек
Максимальный битрейт : 40,0 Мбит/сек
Ширина : 1920 пикселей
Высота : 1080 пикселей
Соотношение сторон : 16:9
Частота кадров : 25,000 кадров/сек
Стандарт вещания : Component
Цветовое пространство : YUV
Субдискретизация насыщенности : 4:2:0
Битовая глубина : 8 бит
Тип развёртки : Чересстрочная
Порядок развёртки : Верхнее поле первое
Бит/(Пиксели*Кадры) : 0.166
Размер потока : 5,45 Гбайт (93%)
Аудио
Идентификатор : 4352 (0x1100)
Идентификатор меню : 1 (0x1)
Формат : MPEG Audio
Версия формата : Version 1
Профиль формата : Layer 2
Идентификатор кодека : 3
Продолжительность : 1 ч. 30 м.
Вид битрейта : Постоянный
Битрейт : 192 Кбит/сек
Каналы : 2 канала
Частота : 48,0 КГц
Метод сжатия : С потерями
Размер потока : 125 Мбайт (2%)
Язык : Russian

Скриншот с названием фильма

Скриншоты




Показать сообщения:    

Текущее время: 10-Дек 19:40

Часовой пояс: UTC + 3


Вы не можете начинать темы
Вы не можете отвечать на сообщения
Вы не можете редактировать свои сообщения
Вы не можете удалять свои сообщения
Вы не можете голосовать в опросах
Вы не можете прикреплять файлы к сообщениям
Вы не можете скачивать файлы