Выживут только любовники / Only Lovers Left Alive (Джим Джармуш / Jim Jarmusch) [2013, Великобритания, Германия, Греция, фэнтези, триллер, драма, BDRip 720p] Dub (R5) + AVO (Сербин) + VO (Doctor Joker) + Sub (Rus, Eng, Fre) + Original (Eng)


 

[Цитировать]

Выживут только любовники / Only Lovers Left Alive
Страна: Великобритания, Германия, Греция
Студия: Recorded Picture Company (RPC), Pandora Filmproduktion, Snow Wolf Produktion
Жанр: фэнтези, триллер, драма
Год выпуска: 2013
Продолжительность: 02:03:15
Перевод 1: Профессиональный (дублированный) - R5
Перевод 2: Авторский (одноголосый закадровый) - Ю.Сербин
Перевод 3: Одноголосый закадровый - А.Матвеев
Субтитры: Russian (А.Матвеев), English, French
Оригинальная аудиодорожка: английский
Режиссер: Джим Джармуш / Jim Jarmusch
В ролях: Тильда Суинтон, Том Хиддлстон, Антон Ельчин, Миа Васиковска, Джон Хёрт, Джеффри Райт, Слиман Дази, Картер Логан, Орели Тепо, Али Эмин
Описание: История древних вампиров Адама и Евы, которые видели ещё татаро-монгольское иго и инквизиции. Адам — рокер из Детройта, играющий андеграунд-музыку. Он уже очень старый, он хочет тишины, покоя, и тихо ненавидит «зомби» (так вампиры зовут людей). Ева же — напротив, весьма жизнерадостная вампирелла постарше, общающаяся с поэтом времён Шекспира, Кристофером Марло, и живущая в Танжере. Она приезжает вытаскивать своего любовника из пучины депрессии. Но идиллию нарушает внезапно заявляющаяся младшая сестра Евы — Ава. Исход ситуации предсказать не в силах никто — выживут только любовники?
Релиз: by delia
Сэмпл: http://multi-up.com/1000916
Тип релиза: BDRip 720p
Контейнер: MKV
Видео: 1280x692 at 23.976 fps, x264@L4.1, ~8248 kbps avg
Аудио 1: Russian: 48 kHz, AC3, 3/2 (L,C,R,l,r) + LFE ch, ~448.00 kbps avg |Дубляж, R5|
Аудио 2: Russian: 48 kHz/24-bit, DTS 5.1, ~1509.00 kbps avg |Одноголосый закадровый, Ю.Сербин|
Аудио 3: Russian: 48 kHz/24-bit, DTS 5.1, ~1509.00 kbps avg |Одноголосый закадровый, А.Матвеев|
Аудио 4: English: 48 kHz/24-bit, DTS 5.1, ~1509.00 kbps avg
Главы: есть

MediaInfo

General
Unique ID : 190907573342007756731129868541247017817 (0x8F9F7611EC06086D98254D910E92D359)
Complete name : D:\Видео\Movies\Only.Lovers.Left.Alive.2013.720p.BluRay.3xRus.Eng.HDCLUB-SbR.mkv
Format : Matroska
Format version : Version 4 / Version 2
File size : 11.4 GiB
Duration : 2h 3mn
Overall bit rate : 13.2 Mbps
Encoded date : UTC 2014-09-22 13:53:52
Writing application : mkvmerge v6.9.0 ('On Duende') 64bit built on Apr 18 2014 12:57:54
Writing library : libebml v1.3.0 + libmatroska v1.4.1
Video
ID : 1
Format : AVC
Format/Info : Advanced Video Codec
Format profile : High@L4.1
Format settings, CABAC : Yes
Format settings, ReFrames : 9 frames
Codec ID : V_MPEG4/ISO/AVC
Duration : 2h 3mn
Bit rate : 7 989 Kbps
Width : 1 280 pixels
Height : 692 pixels
Display aspect ratio : 1.85:1
Frame rate mode : Constant
Frame rate : 23.976 fps
Color space : YUV
Chroma subsampling : 4:2:0
Bit depth : 8 bits
Scan type : Progressive
Bits/(Pixel*Frame) : 0.376
Stream size : 6.88 GiB (60%)
Writing library : x264 core 142 r2479kMod dd79a61
Encoding settings : cabac=1 / ref=9 / deblock=1:-3:-3 / analyse=0x3:0x133 / me=tesa / subme=10 / psy=1 / fade_compensate=0.00 / psy_rd=1.00:0.05 / mixed_ref=1 / me_range=24 / chroma_me=1 / trellis=2 / 8x8dct=1 / cqm=0 / deadzone=21,11 / fast_pskip=0 / chroma_qp_offset=-3 / threads=6 / lookahead_threads=1 / sliced_threads=0 / nr=0 / decimate=1 / interlaced=0 / bluray_compat=0 / constrained_intra=0 / fgo=0 / bframes=12 / b_pyramid=2 / b_adapt=2 / b_bias=0 / direct=3 / weightb=1 / open_gop=0 / weightp=2 / keyint=250 / keyint_min=23 / scenecut=40 / intra_refresh=0 / rc_lookahead=60 / rc=crf / mbtree=0 / crf=16.5000 / qcomp=0.70 / qpmin=0 / qpmax=69 / qpstep=4 / vbv_maxrate=62500 / vbv_bufsize=78125 / crf_max=0.0 / nal_hrd=none / filler=0 / ip_ratio=1.30 / pb_ratio=1.20 / aq=1:0.70
Language : English
Default : Yes
Forced : No
Matrix coefficients : BT.709
Audio #1
ID : 2
Format : AC-3
Format/Info : Audio Coding 3
Mode extension : CM (complete main)
Format settings, Endianness : Big
Codec ID : A_AC3
Duration : 2h 3mn
Bit rate mode : Constant
Bit rate : 448 Kbps
Channel count : 6 channels
Channel positions : Front: L C R, Side: L R, LFE
Sampling rate : 48.0 KHz
Bit depth : 16 bits
Compression mode : Lossy
Stream size : 395 MiB (3%)
Title : Дубляж-R5
Language : Russian
Default : Yes
Forced : No
Audio #2
ID : 3
Format : DTS
Format/Info : Digital Theater Systems
Mode : 16
Format settings, Endianness : Big
Codec ID : A_DTS
Duration : 2h 3mn
Bit rate mode : Constant
Bit rate : 1 509 Kbps
Channel count : 6 channels
Channel positions : Front: L C R, Side: L R, LFE
Sampling rate : 48.0 KHz
Bit depth : 24 bits
Compression mode : Lossy
Stream size : 1.30 GiB (11%)
Title : Одноголосый закадровый, Ю.Сербин
Language : Russian
Default : No
Forced : No
Audio #3
ID : 4
Format : DTS
Format/Info : Digital Theater Systems
Mode : 16
Format settings, Endianness : Big
Codec ID : A_DTS
Duration : 2h 3mn
Bit rate mode : Constant
Bit rate : 1 509 Kbps
Channel count : 6 channels
Channel positions : Front: L C R, Side: L R, LFE
Sampling rate : 48.0 KHz
Bit depth : 24 bits
Compression mode : Lossy
Stream size : 1.30 GiB (11%)
Title : Одноголосый закадровый, А.Матвеев
Language : Russian
Default : No
Forced : No
Audio #4
ID : 5
Format : DTS
Format/Info : Digital Theater Systems
Mode : 16
Format settings, Endianness : Big
Codec ID : A_DTS
Duration : 2h 3mn
Bit rate mode : Constant
Bit rate : 1 509 Kbps
Channel count : 6 channels
Channel positions : Front: L C R, Side: L R, LFE
Sampling rate : 48.0 KHz
Bit depth : 24 bits
Compression mode : Lossy
Stream size : 1.30 GiB (11%)
Language : English
Default : No
Forced : No
Text #1
ID : 6
Format : UTF-8
Codec ID : S_TEXT/UTF8
Codec ID/Info : UTF-8 Plain Text
Language : Russian
Default : No
Forced : No
Text #2
ID : 7
Format : UTF-8
Codec ID : S_TEXT/UTF8
Codec ID/Info : UTF-8 Plain Text
Language : English
Default : No
Forced : No
Text #3
ID : 8
Format : UTF-8
Codec ID : S_TEXT/UTF8
Codec ID/Info : UTF-8 Plain Text
Language : French
Default : No
Forced : No
Menu
00:00:00.000 : en:00:00:00.000
00:11:04.413 : en:00:11:04.413
00:21:13.689 : en:00:21:13.689
00:27:47.707 : en:00:27:47.707
00:35:23.454 : en:00:35:23.454
00:42:27.503 : en:00:42:27.503
00:49:35.681 : en:00:49:35.681
00:58:32.926 : en:00:58:32.926
01:05:55.826 : en:01:05:55.826
01:15:24.520 : en:01:15:24.520
01:23:29.254 : en:01:23:29.254
01:28:57.081 : en:01:28:57.081
01:36:46.592 : en:01:36:46.592
01:47:52.799 : en:01:47:52.799
01:56:38.324 : en:01:56:38.324

Скриншоты





Показать сообщения:    

Текущее время: 04-Дек 00:50

Часовой пояс: UTC + 3


Вы не можете начинать темы
Вы не можете отвечать на сообщения
Вы не можете редактировать свои сообщения
Вы не можете удалять свои сообщения
Вы не можете голосовать в опросах
Вы не можете прикреплять файлы к сообщениям
Вы не можете скачивать файлы