Пережить свою жизнь / Пережить самого себя: Теория и практика / Prezit svuj zivot (teorie a praxe) (Ян Шванкмайер / Jan Svankmajer) [2010, Чехия, Словакия, Япония, комедия, сюрреализм, авангард, HDTVRip 720p] VO + Sub Rus, Eng + Original Cze


 

[Цитировать]

Пережить самого себя: Теория и практика / Prezit svuj zivot (teorie a praxe)
Страна: Чехия, Словакия, Япония
Жанр: психоаналитическая комедия, сюрреализм, авангард
Год выпуска: 2010
Продолжительность: 01:44:33
Перевод: Одноголосый закадровый
Cубтитры: русские, английские
Оригинальная аудиодорожка: чешский
Режиссер: Ян Шванкмайер / Jan Svankmajer
В ролях: Вацлав Хелсус, Клара Иссова, Зузана Кронерова, Даниэла Бакерова, Эмилия Досекова, Марцель Немец, Яна Олхова, Павел Новы, Карел Брожек, Мирослав Врба, Ян Шванкмайер
Описание: Психологическая комедия про хаотичный внутренний мир мужчины, балансирующего между сном и реальностью. В фильме, жанр которого сам автор определил как «психоаналитическая комедия», рассказывается история человека по имени Евгений, который живет двойной жизнью — в реальности и в снах. В обычной жизни у Евгения есть жена Милада, а во сне — юная возлюбленная Евгения. Евгений решает обратиться к психоаналитику. Вскоре выясняется, что Евгения беременна. Тем временем Милада начинает подозревать мужа в неверности и устанавливает за ним слежку. Сны в фильме получают толкование из уст легенд психоанализа Фрейда и Юнга, которые сходят с фотографий и участвуют в действии "как живые": смеются и аплодируют...
Пользующийся славой экспериментатора и сказочника, Шванкмайер использует необычную технику, уникальный метод, не свойственный игровому кино. Вместо актеров в картине задействованы их фотографические изображения, которые вырезают и оживляют с помощью камеры, как это принято в перекладной анимации. Новый фильм как всегда многозначный и ироничный, он не оставит равнодушными поклонников знаменитого сюрреалиста.

Доп.информация:


перевод субтитров -
elifas_levi & gabo
Тип релиза: HDTVRip 720p (thnx DON) | sample
Контейнер: MKV
Видео: H.264/AVC, 1280x720, 16:9, 25.00fps, 5869 Kbps
Аудио: Russian, DD 2.0, 48 kHz, 192 Kbps
Аудио 2: Czech, DD 5.1, 48 kHz, 448 Kbps
Формат субтитров: softsub (SRT)

MI

General
Unique ID                                : 244895248459818595823338093540223518071 (0xB83D1BF6263EA7419CD37F60903C8577)
Complete name                            : V:\=InTheHappyRoom=\Prezit.svuj.zivot.2010.720p.HDTV.x264-DON\Prezit.svuj.zivot.2010.720p.HDTV.x264.rus.cze.mkv
Format                                   : Matroska
Format version                           : Version 4 / Version 2
File size                                : 4.85 GiB
Duration                                 : 1h 44mn
Overall bit rate                         : 6 641 Kbps
Movie name                               : Přežít svůj život (2010)
Encoded date                             : UTC 2014-09-22 11:41:23
Writing application                      : mkvmerge v7.1.0 ('Good Love') 64bit built on Jul 27 2014 13:06:55
Writing library                          : libebml v1.3.0 + libmatroska v1.4.1
DURATION                                 : 01:40:25.575000000
NUMBER_OF_FRAMES                         : 886
NUMBER_OF_BYTES                          : 55273
_STATISTICS_WRITING_APP                  : mkvmerge v7.1.0 ('Good Love') 64bit built on Jul 27 2014 13:06:55
_STATISTICS_WRITING_DATE_UTC             : 2014-09-22 11:41:23
_STATISTICS_TAGS                         : BPS DURATION NUMBER_OF_FRAMES NUMBER_OF_BYTES
Video
ID                                       : 1
Format                                   : AVC
Format/Info                              : Advanced Video Codec
Format profile                           : High@L4.1
Format settings, CABAC                   : Yes
Format settings, ReFrames                : 9 frames
Codec ID                                 : V_MPEG4/ISO/AVC
Duration                                 : 1h 44mn
Bit rate                                 : 5 869 Kbps
Width                                    : 1 280 pixels
Height                                   : 720 pixels
Display aspect ratio                     : 16:9
Frame rate mode                          : Constant
Frame rate                               : 25.000 fps
Color space                              : YUV
Chroma subsampling                       : 4:2:0
Bit depth                                : 8 bits
Scan type                                : Progressive
Bits/(Pixel*Frame)                       : 0.255
Stream size                              : 4.29 GiB (88%)
Writing library                          : x264 core 142 r2431+42 c69a006 tMod [8-bit@all X86_64]
Encoding settings                        : cabac=1 / ref=9 / deblock=1:-3:-3 / analyse=0x3:0x133 / me=tesa / subme=10 / psy=1 / fade_compensate=0.00 / psy_rd=1.05:0.00 / mixed_ref=1 / me_range=24 / chroma_me=1 / trellis=2 / 8x8dct=1 / cqm=0 / deadzone=21,11 / fast_pskip=0 / chroma_qp_offset=-2 / threads=12 / lookahead_threads=2 / sliced_threads=0 / nr=0 / decimate=0 / interlaced=0 / bluray_compat=0 / constrained_intra=0 / fgo=0 / bframes=8 / b_pyramid=2 / b_adapt=2 / b_bias=0 / direct=3 / weightb=1 / open_gop=0 / weightp=2 / keyint=250 / keyint_min=25 / scenecut=40 / intra_refresh=0 / rc_lookahead=60 / rc=crf / mbtree=0 / crf=16.5000 / qcomp=0.65 / qpmin=0:0:0 / qpmax=69:69:69 / qpstep=4 / vbv_maxrate=62500 / vbv_bufsize=78125 / crf_max=0.0 / nal_hrd=none / filler=0 / ip_ratio=1.40 / pb_ratio=1.30 / aq=4:0.80 / aq-sensitivity=10.00 / aq-factor=1.00:1.00:1.00 / aq2=0 / aq3=0
Language                                 : Czech
Default                                  : Yes
Forced                                   : No
Audio #1
ID                                       : 3
Format                                   : AC-3
Format/Info                              : Audio Coding 3
Mode extension                           : CM (complete main)
Format settings, Endianness              : Big
Codec ID                                 : A_AC3
Duration                                 : 1h 44mn
Bit rate mode                            : Constant
Bit rate                                 : 192 Kbps
Channel(s)                               : 2 channels
Channel positions                        : Front: L R
Sampling rate                            : 48.0 KHz
Bit depth                                : 16 bits
Compression mode                         : Lossy
Stream size                              : 144 MiB (3%)
Title                                    : VO
Language                                 : Russian
Default                                  : Yes
Forced                                   : No
Audio #2
ID                                       : 4
Format                                   : AC-3
Format/Info                              : Audio Coding 3
Mode extension                           : CM (complete main)
Format settings, Endianness              : Big
Codec ID                                 : A_AC3
Duration                                 : 1h 44mn
Bit rate mode                            : Constant
Bit rate                                 : 448 Kbps
Channel(s)                               : 6 channels
Channel positions                        : Front: L C R, Side: L R, LFE
Sampling rate                            : 48.0 KHz
Bit depth                                : 16 bits
Compression mode                         : Lossy
Stream size                              : 335 MiB (7%)
Language                                 : Czech
Default                                  : No
Forced                                   : No
Text #1
ID                                       : 2
Format                                   : UTF-8
Codec ID                                 : S_TEXT/UTF8
Codec ID/Info                            : UTF-8 Plain Text
Language                                 : English
Default                                  : No
Forced                                   : No
Text #2
ID                                       : 5
Format                                   : UTF-8
Codec ID                                 : S_TEXT/UTF8
Codec ID/Info                            : UTF-8 Plain Text
Title                                    : elifas_levi & gabo
Language                                 : Russian
Default                                  : No
Forced                                   : No

Скриншоты




Показать сообщения:    

Текущее время: 11-Дек 01:20

Часовой пояс: UTC + 3


Вы не можете начинать темы
Вы не можете отвечать на сообщения
Вы не можете редактировать свои сообщения
Вы не можете удалять свои сообщения
Вы не можете голосовать в опросах
Вы не можете прикреплять файлы к сообщениям
Вы не можете скачивать файлы