Цельнометаллическая оболочка / Full Metal Jacket (Стэнли Кубрик / Stanley Kubrick) [1987, Великобритания, США, драма, военный, BDRip 1080p] 2x AVO (Гоблин, Володарский) + MVO (R5) + VO (Багичев) + Original (Eng) + Commentary + Sub (Rus, Eng)


 

[Цитировать]

Цельнометаллическая оболочка / Full Metal JacketГод выпуска: 1987
Страна: Великобритания, США
Жанр: драма, военный
Продолжительность: 01:56:30
Перевод:
- авторский одноголосый закадровый, Дмитрий Гоблин Пучков содержится ненормативная лексика
- профессиональный многоголосый закадровый, R5
- авторский одноголосый закадровый, Леонид Володарский содержится ненормативная лексика
- одноголосый закадровый, Алексей Багичев
Субтитры: русские (Гоблин, R5), английские
Режиссер: Стэнли Кубрик / Stanley Kubrick
В ролях: Мэтью Модайн, Адам Болдуин, Винсент Д`Онофрио, Р. Ли Эрми, Дориан Хэрвуд, Кевин Мейджор Ховард, Арлисс Ховард, Эд О`Росс, Джон Терри, Кирон Джеккинис
Описание: Американская база подготовки новобранцев корпуса морской пехоты. Жесточайшая, бесчеловечная система призвана превратить домашних мальчишек в натренированных хладнокровных убийц. Их готовят к войне во Вьетнаме, где им придется часто задавать себе вопрос «Разве война — это не ад?», а иначе просто невозможно убивать каждый день, не понимая, для чего это?
Рейтинг MPAA: -Доп. информация:
IMDb: 8.4/10, Top 250: #86
Kinopoisk: 8.054/10
Sample

Интересные факты о фильме

  • На самом деле Р. Ли Эрми - бывший инструктор по боевой подготовке, но на съемочной площадке выступал в качестве консультанта, но Стэнли Кубрику так понравились его отборные ругательства что он сразу предложил ему роль сержанта Хартмана.
  • Стэнли Кубрик специально не хотел брать в фильм звезд первой величины - во-первых, чтобы не раздувать бюджет, а во-вторых, тем самым он хотел показать «обычных» парней.
  • Название означает вид боеприпасов, используемых в стрелковом оружии (оболочечная пуля).
  • Винсент Д’Онофрио набрал 70 фунтов (~ 31.8 кг) для роли Гомера Кучи.
  • Имя «Гомер Куча» возникло в сценарии фильма не случайно — с 1964 по 1969 год, в самый разгар Вьетнамской войны, на CBS шёл комедийный телесериал «Гомер Куча, морпех» (Gomer Pyle, U.S.M.C.) о весёлых приключениях новобранца в корпусе морской пехоты США.
  • Сценарий в основном писал Майкл Герр, близкий друг Кубрика, который сам был военным корреспондентом во Вьетнаме.
  • Густав Хэсфорд сам служил во Вьетнаме и во многом создал героев своего романа на основе бывших сослуживцев.
  • В фильме была сцена, в которой солдаты играли в футбол человеческой головой. Сцену вырезали при монтаже. Кадры секса Шутника с вьетнамской проституткой тоже вырезали.
  • Весь фильм был снят в Англии, так как Стэнли Кубрик боялся летать на самолетах.
  • Во всех сценах фильма сержант появляется со шляпой на голове — даже в эпизоде, когда все ночью просыпаются.
  • В момент выстрела вьетнамского снайпера по пулемётчику сначала виден фонтанчик пыли и песка от удара пули по углу здания, а только потом появляется вспышка от выстрела.
  • Фильм снят по роману Густава Хэсфорда.

Награды и номинации

Оскар, 1988 год
Номинации (1):
* Лучший адаптированный сценарий
Золотой глобус, 1988 год
Номинации (1):
* Лучшая мужская роль второго плана (Р. Ли Эрми)
Британская академия, 1988 год
Номинации (2):
* Лучший звук
* Лучшие визуальные эффекты-Приз «Давид» Донателло» в Италии за лучший иностранный фильм, премия «Кинема дзюнпо» в Японии лучшему иностранному режиссёру по итогам 1988 года.
Качество: BDRip 1080p
Формат: MKV
Видео: H.264, 1920x1080, 11997 kbps, 23,976 fps
Аудио №1: Russian, DTS, 6ch, 48 kHz, 1509 kbps (Одноголосый, Гоблин)
Аудио №2: Russian, AC3, 6ch, 48 kHz, 448 kbps (Многоголосый, R5)
Аудио №3: Russian, DTS, 6ch, 48 kHz, 1509 kbps (Одноголосый, Володарский)
Аудио №4: Russian, DTS, 6ch, 48 kHz, 1509 kbps (Одноголосый, Багичев)
Аудио №5: English, DTS, 6ch, 48 kHz, 1509 kbps (Оригинал)
Аудио №6: English, AC3, 2ch, 48 kHz, 192 kbps (Комментарии)
Субтитры №1: Russian, SRT, Гоблин
Субтитры №2: Russian, SRT, R5
Субтитры №3: English, SRT-

Mediainfo

Format : Matroska
Format version : Version 4 / Version 2
File size : 15.2 GiB
Duration : 1h 56mn
Overall bit rate : 18.7 Mbps
Movie name : Full Metal Jacket (1987) BDRip 1080p
Encoded date : UTC 2014-09-18 14:58:46
Writing application : mkvmerge v6.9.1 ('Blue Panther') 64bit built on Apr 18 2014 18:23:38
Writing library : libebml v1.3.0 + libmatroska v1.4.1
Attachment : Yes
Video
ID : 1
Format : AVC
Format/Info : Advanced Video Codec
Format profile : High@L4.1
Format settings, CABAC : Yes
Format settings, ReFrames : 4 frames
Codec ID : V_MPEG4/ISO/AVC
Duration : 1h 56mn
Bit rate : 11.6 Mbps
Width : 1 920 pixels
Height : 1 080 pixels
Display aspect ratio : 16:9
Frame rate mode : Constant
Frame rate : 23.976 fps
Color space : YUV
Chroma subsampling : 4:2:0
Bit depth : 8 bits
Scan type : Progressive
Bits/(Pixel*Frame) : 0.234
Stream size : 9.46 GiB (62%)
Writing library : x264 core 142 r2479kMod dd79a61
Encoding settings : cabac=1 / ref=4 / deblock=1:-3:-2 / analyse=0x3:0x133 / me=umh / subme=11 / psy=1 / fade_compensate=0.00 / psy_rd=1.10:0.05 / mixed_ref=1 / me_range=32 / chroma_me=1 / trellis=2 / 8x8dct=1 / cqm=0 / deadzone=21,11 / fast_pskip=0 / chroma_qp_offset=-3 / threads=6 / lookahead_threads=1 / sliced_threads=0 / nr=0 / decimate=1 / interlaced=0 / bluray_compat=0 / constrained_intra=0 / fgo=0 / bframes=12 / b_pyramid=2 / b_adapt=2 / b_bias=0 / direct=1 / weightb=1 / open_gop=0 / weightp=2 / keyint=250 / keyint_min=23 / scenecut=40 / intra_refresh=0 / rc_lookahead=40 / rc=crf / mbtree=0 / crf=20.5000 / qcomp=0.67 / qpmin=0 / qpmax=69 / qpstep=4 / vbv_maxrate=50000 / vbv_bufsize=62500 / crf_max=0.0 / nal_hrd=none / filler=0 / ip_ratio=1.40 / pb_ratio=1.30 / aq=3:0.90
Language : English
Default : Yes
Forced : No
Matrix coefficients : BT.709
Audio #1
ID : 2
Format : DTS
Format/Info : Digital Theater Systems
Mode : 16
Format settings, Endianness : Big
Codec ID : A_DTS
Duration : 1h 56mn
Bit rate mode : Constant
Bit rate : 1 509 Kbps
Channel(s) : 6 channels
Channel positions : Front: L C R, Side: L R, LFE
Sampling rate : 48.0 KHz
Bit depth : 16 bits
Compression mode : Lossy
Stream size : 1.23 GiB (8%)
Title : AVO, Goblin
Language : Russian
Default : Yes
Forced : No
Audio #2
ID : 3
Format : AC-3
Format/Info : Audio Coding 3
Mode extension : CM (complete main)
Format settings, Endianness : Big
Codec ID : A_AC3
Duration : 1h 56mn
Bit rate mode : Constant
Bit rate : 448 Kbps
Channel(s) : 6 channels
Channel positions : Front: L C R, Side: L R, LFE
Sampling rate : 48.0 KHz
Bit depth : 16 bits
Compression mode : Lossy
Stream size : 374 MiB (2%)
Title : MVO, R5
Language : Russian
Default : No
Forced : No
Audio #3
ID : 4
Format : DTS
Format/Info : Digital Theater Systems
Mode : 16
Format settings, Endianness : Big
Codec ID : A_DTS
Duration : 1h 56mn
Bit rate mode : Constant
Bit rate : 1 509 Kbps
Channel(s) : 6 channels
Channel positions : Front: L C R, Side: L R, LFE
Sampling rate : 48.0 KHz
Bit depth : 16 bits
Compression mode : Lossy
Stream size : 1.23 GiB (8%)
Title : AVO, Volodarskiy
Language : Russian
Default : No
Forced : No
Audio #4
ID : 5
Format : DTS
Format/Info : Digital Theater Systems
Mode : 16
Format settings, Endianness : Big
Codec ID : A_DTS
Duration : 1h 56mn
Bit rate mode : Constant
Bit rate : 1 509 Kbps
Channel(s) : 6 channels
Channel positions : Front: L C R, Side: L R, LFE
Sampling rate : 48.0 KHz
Bit depth : 16 bits
Compression mode : Lossy
Stream size : 1.23 GiB (8%)
Title : AVO, Bagichev
Language : Russian
Default : No
Forced : No
Audio #5
ID : 6
Format : DTS
Format/Info : Digital Theater Systems
Mode : 16
Format settings, Endianness : Big
Codec ID : A_DTS
Duration : 1h 56mn
Bit rate mode : Constant
Bit rate : 1 509 Kbps
Channel(s) : 6 channels
Channel positions : Front: L C R, Side: L R, LFE
Sampling rate : 48.0 KHz
Bit depth : 16 bits
Compression mode : Lossy
Stream size : 1.23 GiB (8%)
Title : Original
Language : English
Default : No
Forced : No
Audio #6
ID : 7
Format : AC-3
Format/Info : Audio Coding 3
Format profile : Dolby Digital
Mode extension : CM (complete main)
Format settings, Endianness : Big
Codec ID : A_AC3
Duration : 1h 56mn
Bit rate mode : Constant
Bit rate : 192 Kbps
Channel(s) : 2 channels
Channel positions : Front: L R
Sampling rate : 48.0 KHz
Bit depth : 16 bits
Compression mode : Lossy
Stream size : 160 MiB (1%)
Title : Commentary
Language : English
Default : No
Forced : No
Text #1
ID : 8
Format : UTF-8
Codec ID : S_TEXT/UTF8
Codec ID/Info : UTF-8 Plain Text
Title : Goblin
Language : Russian
Default : No
Forced : No
Text #2
ID : 9
Format : UTF-8
Codec ID : S_TEXT/UTF8
Codec ID/Info : UTF-8 Plain Text
Title : R5
Language : Russian
Default : No
Forced : No
Text #3
ID : 10
Format : UTF-8
Codec ID : S_TEXT/UTF8
Codec ID/Info : UTF-8 Plain Text
Language : English
Default : No
Forced : No
Menu
00:00:00.000 : en:Haircut Montage (Hello Vietnam).
00:01:34.000 : en:Sgt. Hartman Names His Maggots.
00:07:31.167 : en:Drill.
00:09:57.501 : en:"This Is My Rifle."
00:13:17.369 : en:Obstacle Course.
00:17:34.003 : en:Joker's Got Guts.
00:19:38.337 : en:Helping Pyle.
00:23:45.537 : en:The Jelly Donut.
00:28:06.004 : en:Night Attack.
00:30:13.004 : en:Motivated Marines.
00:32:22.171 : en:God and the Corps.
00:33:49.505 : en:Pyle and His Rifle.
00:38:16.538 : en:Graduation.
00:39:57.671 : en:Full Metal Jacket.
00:42:52.171 : en:Pyle's Major Malfunction.
00:45:25.005 : en:Vietnam (These Boots Are Made for Walkin').
00:47:46.505 : en:The Stories We Write.
00:51:56.339 : en:Base Under Attack (Chapel of Love).
00:56:30.339 : en:No Ann-Margret?
00:58:31.040 : en:Trigger Happy.
01:01:27.173 : en:What the Dead Know.
01:03:37.007 : en:The Word of God.
01:05:47.207 : en:Reunion with Cowboy (Wooly Bully).
01:08:55.707 : en:Guest of Honor.
01:10:20.374 : en:Approaching Hue City.
01:12:15.041 : en:First Strike.
01:15:30.842 : en:Vietnam: The Movie (Surfin' Bird).
01:17:43.176 : en:Words Over the Dead.
01:19:41.676 : en:Interview Subjects.
01:22:52.176 : en:Negotiations.
01:25:25.676 : en:New Squad Leader.
01:28:19.176 : en:The Sniper.
01:30:46.676 : en:Two Men Down.
01:35:34.876 : en:Animal Mother's Charge.
01:38:38.510 : en:Cowboy's End.
01:41:37.177 : en:Getting the Sniper.
01:45:03.844 : en:"Shoot Me."
01:50:58.678 : en:Alive and Not Afraid (Mickey Mouse March).
01:52:46.512 : en:End Credits (Paint It Black).

x264 log

x264 [info]: frame I:871 Avg QP:18.60 size:187493
x264 [info]: frame P:39704 Avg QP:20.06 size:105361
x264 [info]: frame B:127037 Avg QP:21.99 size: 48308
x264 [info]: consecutive B-frames: 0.7% 4.3% 2.3% 58.1% 13.9% 17.6% 0.7% 0.9% 0.2% 0.3% 0.2% 0.2% 0.5%
x264 [info]: mb I I16..4: 5.2% 90.4% 4.5%
x264 [info]: mb P I16..4: 0.4% 29.6% 0.5% P16..4: 27.9% 30.6% 8.0% 0.5% 0.0% skip: 2.5%
x264 [info]: mb B I16..4: 0.1% 5.4% 0.1% B16..8: 41.4% 17.5% 2.1% direct:10.6% skip:22.9% L0:37.7% L1:36.4% BI:25.8%
x264 [info]: 8x8 transform intra:96.9% inter:64.1%
x264 [info]: coded y,uvDC,uvAC intra: 96.1% 86.9% 52.9% inter: 42.6% 33.6% 4.8%
x264 [info]: i16 v,h,dc,p: 41% 9% 9% 40%
x264 [info]: i8 v,h,dc,ddl,ddr,vr,hd,vl,hu: 11% 9% 17% 8% 10% 10% 10% 11% 14%
x264 [info]: i4 v,h,dc,ddl,ddr,vr,hd,vl,hu: 15% 6% 4% 8% 14% 15% 14% 11% 12%
x264 [info]: i8c dc,h,v,p: 34% 30% 22% 14%
x264 [info]: Weighted P-Frames: Y:7.0% UV:5.1%
x264 [info]: ref P L0: 47.0% 12.3% 26.7% 13.0% 1.0% 0.0%
x264 [info]: ref B L0: 88.3% 9.0% 2.7%
x264 [info]: ref B L1: 95.4% 4.6%
x264 [info]: kb/s:11996.82
x264 [info]: encoded 167612 frames, 2.21 fps, 11996.82 kb/s, duration 21:04:45.26

-

Скриншоты


-Релиз от группы -



Показать сообщения:    

Текущее время: 04-Дек 02:55

Часовой пояс: UTC + 3


Вы не можете начинать темы
Вы не можете отвечать на сообщения
Вы не можете редактировать свои сообщения
Вы не можете удалять свои сообщения
Вы не можете голосовать в опросах
Вы не можете прикреплять файлы к сообщениям
Вы не можете скачивать файлы