Украденные поцелуи / Baisers volés / Stolen Kisses (Франсуа Трюффо / François Truffaut) [1968 г., Франция, мелодрама, комедия, BDRip 720p] 2x MVO (Кармен Видео, SomeWax) + Original Fre + Sub (Rus, Eng, Fre, Gre)


 

[Цитировать]

Украденные поцелуи / Baisers volés- Год выпуска: 1968
Страна: Франция
Жанр: мелодрама, комедия
Продолжительность: 01:31:18
Перевод 1: Профессиональный (многоголосый закадровый) Кармен Видео
Перевод 2: Профессиональный (многоголосый закадровый) SomeWax
Оригинальная аудиодорожка: Французская
Cубтитры: Русские (R5), английские (полные, на комментарии), французские, греческие-Режиссер: Франсуа Трюффо / François Truffaut
В ролях: Жан-Пьер Лео, Дельфин Сейриг, Клод Жад, Мишель Лонсдаль, Гарри-Макс, Андре Фалькон, Даниэль Секкальди, Клер Дюамель, Катрин Лутс, Мартина Феррьер-Описание:
Фильм входит в цикл фильмов, объединенных одним героем, Антуаном Дуанелем. Цикл начинается полуавтобиографическим фильмом «Четыреста ударов» (Les Quatre cents coups) и продолжается в таких фильмах, как «Антуан и Колетт» (Antoine et Colette, новелла в фильме «Любовь в 20 лет», 1962), «Украденные поцелуи» (Baisers volés, 1968, c Жан-Пьером Лео, Клод Жад), «Семейный очаг» (Domicile conjugale, 1970, Жан-Пьер Лео, Клод Жад), «Сбежавшая любовь» (L’amoure en fuite, 1979, c Жан-Пьером Лео, Клод Жад).
Антуан увольняется из армии в возрасте 20 лет. Не сумев заставить Кристин полюбить его, он продолжает поиски идеальной женщины. Устраивается работать в детективное агентство, где заваливает любое дело, которое ему поручают расследовать. Наконец он получает возможность продемонстрировать свою «техническую пригодность», правильно завернув обувную коробку в магазине. Дуанель должен выяснить, почему владелец магазина, мсье Табар, чувствует, что его кто-то ненавидит, и существует ли против него заговор. Как-то, задержавшись на работе позднее обычного, Дуанель знакомится с Фабьен, женой Табара…-За "Кармен" спасибо L. Lacombe.
| IMDb | Сэмпл-Качество: BDRip 720p (DON)
Контейнер: MKV
Видео: x264, 1198x720 (1.66:1), 24 fps, 10499 kbps
Аудио 1: Русский AС3, 2.0, 48 kHz, 192 kbps — Кармен
Аудио 2: Русский AС3, 2.0, 48 kHz, 192 kbps — SomeWax
Аудио 3: Французский FLAC 2.0, 48 kHz, 252 kbps
Аудио 4: Французский AAC 2.0, 48 kHz, 63 kbps — Комментарии

MInfo

Info
RUNTIME.......: 1h 31mn
SIZE..........: 6.90 GiB
VIDEO CODEC...: x264, 2pass, L4.1
FRAMERATE.....: 24.000 fps
BITRATE.......: 10.5 Mbps
RESOLUTION....: 1198x720
AUDIO ........: French 2.0ch FLAC
AUDIO ........: French 2.0ch AAC (Commentary with Claude de Givray and Claude Jade)
SUBTITLES.....: English,English(commntary),Greek
CHAPTERS/NAMED: Yes / No
SOURCE........: Baisers volés 1968 1080p GBR Blu-ray AVC LPCM 2.0-ESiR(thanks!)
NOTES.........: Dirty lines fixed,very bad source full of artifacts.
General
Unique ID : 238375031974307873305684200570597798838 (0xB3555C7815DF8B6ABEF4BD305E5DF3B6)
Complete name : Baisers.volés.1968.720p.BluRay.x264-DON.mkv
Format : Matroska
Format version : Version 2
File size : 7.14 GiB
Duration : 1h 31mn
Overall bit rate mode : Variable
Overall bit rate : 11.2 Mbps
Movie name : Baisers volés / Украденные поцелуи (1968) – RuTracker
Encoded date : UTC 2014-09-16 14:59:16
Writing application : mkvmerge v7.0.0 ('Where We Going') 64bit built on Jun 9 2014 15:16:27
Writing library : libebml v1.3.0 + libmatroska v1.4.1
Attachment : Yes
Video
ID : 1
Format : AVC
Format/Info : Advanced Video Codec
Format profile : High@L4.1
Format settings, CABAC : Yes
Format settings, ReFrames : 9 frames
Codec ID : V_MPEG4/ISO/AVC
Duration : 1h 31mn
Nominal bit rate : 10.5 Mbps
Width : 1 198 pixels
Height : 720 pixels
Display aspect ratio : 1.664
Frame rate mode : Constant
Frame rate : 24.000 fps
Color space : YUV
Chroma subsampling : 4:2:0
Bit depth : 8 bits
Scan type : Progressive
Bits/(Pixel*Frame) : 0.507
Title : Baisers.volés.1968.720p.BluRay.FLAC2.0.x264-DON
Writing library : x264 core 142 r2409+42 04be48a tMod [8-bit@all X86_64]
Encoding settings : cabac=1 / ref=9 / deblock=1:-3:-3 / analyse=0x3:0x133 / me=tesa / subme=10 / psy=1 / fade_compensate=0.00 / psy_rd=1.10:0.00 / mixed_ref=1 / me_range=32 / chroma_me=1 / trellis=2 / 8x8dct=1 / cqm=0 / deadzone=21,11 / fast_pskip=0 / chroma_qp_offset=-2 / threads=12 / lookahead_threads=2 / sliced_threads=0 / nr=0 / decimate=1 / interlaced=0 / bluray_compat=0 / constrained_intra=0 / fgo=0 / bframes=7 / b_pyramid=2 / b_adapt=2 / b_bias=0 / direct=3 / weightb=1 / open_gop=0 / weightp=2 / keyint=241 / keyint_min=24 / scenecut=40 / intra_refresh=0 / rc_lookahead=60 / rc=2pass / mbtree=0 / bitrate=10500 / ratetol=1.0 / qcomp=0.75 / qpmin=0:0:0 / qpmax=69:69:69 / qpstep=4 / cplxblur=20.0 / qblur=0.5 / vbv_maxrate=50000 / vbv_bufsize=62500 / nal_hrd=none / filler=0 / ip_ratio=1.20 / pb_ratio=1.10 / aq=4:0.80 / aq-sensitivity=10.00 / aq-factor=1.00:1.00:1.00 / aq2=0 / aq3=0
Language : French
Default : Yes
Forced : No
Audio #1
ID : 2
Format : AC-3
Format/Info : Audio Coding 3
Mode extension : CM (complete main)
Format settings, Endianness : Big
Codec ID : A_AC3
Duration : 1h 31mn
Bit rate mode : Constant
Bit rate : 192 Kbps
Channel(s) : 2 channels
Channel positions : Front: L R
Sampling rate : 48.0 KHz
Bit depth : 16 bits
Compression mode : Lossy
Stream size : 125 MiB (2%)
Title : MVO – Кармен Видео
Language : Russian
Default : Yes
Forced : No
Audio #2
ID : 3
Format : AC-3
Format/Info : Audio Coding 3
Mode extension : CM (complete main)
Format settings, Endianness : Big
Codec ID : A_AC3
Duration : 1h 31mn
Bit rate mode : Constant
Bit rate : 192 Kbps
Channel(s) : 2 channels
Channel positions : Front: L R
Sampling rate : 48.0 KHz
Bit depth : 16 bits
Compression mode : Lossy
Stream size : 125 MiB (2%)
Title : MVO – SomeWax
Language : Russian
Default : No
Forced : No
Audio #3
ID : 4
Format : FLAC
Format/Info : Free Lossless Audio Codec
Codec ID : A_FLAC
Duration : 1h 31mn
Bit rate mode : Variable
Channel(s) : 2 channels
Sampling rate : 48.0 KHz
Bit depth : 16 bits
Title : Original
Writing library : libFLAC 1.2.1 (UTC 2007-09-17)
Language : French
Default : No
Forced : No
Audio #4
ID : 5
Format : AAC
Format/Info : Advanced Audio Codec
Format profile : LC
Codec ID : A_AAC
Duration : 1h 31mn
Channel(s) : 2 channels
Channel positions : Front: L R
Sampling rate : 48.0 KHz
Compression mode : Lossy
Title : Commentary with Claude de Givray and Claude Jade
Language : French
Default : No
Forced : No
Text #1
ID : 6
Format : UTF-8
Codec ID : S_TEXT/UTF8
Codec ID/Info : UTF-8 Plain Text
Title : R5
Language : Russian
Default : No
Forced : No
Text #2
ID : 7
Format : UTF-8
Codec ID : S_TEXT/UTF8
Codec ID/Info : UTF-8 Plain Text
Language : English
Default : No
Forced : No
Text #3
ID : 8
Format : UTF-8
Codec ID : S_TEXT/UTF8
Codec ID/Info : UTF-8 Plain Text
Title : SDH
Language : French
Default : No
Forced : No
Text #4
ID : 9
Format : UTF-8
Codec ID : S_TEXT/UTF8
Codec ID/Info : UTF-8 Plain Text
Language : Greek
Default : No
Forced : No
Text #5
ID : 10
Format : UTF-8
Codec ID : S_TEXT/UTF8
Codec ID/Info : UTF-8 Plain Text
Title : Commentary
Language : English
Default : No
Forced : No
Menu
00:00:00.000 : en:Chapter 01
00:09:44.291 : en:Chapter 02
00:20:39.666 : en:Chapter 03
00:29:45.375 : en:Chapter 04
00:36:11.583 : en:Chapter 05
00:41:03.750 : en:Chapter 06
00:49:48.416 : en:Chapter 07
00:57:07.208 : en:Chapter 08
01:06:12.416 : en:Chapter 09
01:12:38.083 : en:Chapter 10
01:18:48.791 : en:Chapter 11
01:26:25.666 : en:Chapter 12



Показать сообщения:    

Текущее время: 04-Дек 15:18

Часовой пояс: UTC + 3


Вы не можете начинать темы
Вы не можете отвечать на сообщения
Вы не можете редактировать свои сообщения
Вы не можете удалять свои сообщения
Вы не можете голосовать в опросах
Вы не можете прикреплять файлы к сообщениям
Вы не можете скачивать файлы