1984 / Nineteen Eighty-Four (Майкл Рэдфорд / Michael Radford) [1984, Великобритания, антиутопия, HDTV 1080i] MVO + DVO + VO + Original Eng + Sub Rus, Eng


 

[Цитировать]

1984
Страна: Великобритания
Год выпуска: 1984
Жанр: Антиутопия
Продолжительность: 1:50:32
Перевод 1: Профессиональный (многоголосый закадровый) [Совэкспортфильм]
Перевод 2: Профессиональный (двухголосый закадровый) [НТВ+]
Перевод 3: Одноголосый закадровый [Неизвестный]
Оригинальная аудиодорожка: Английская
Субтитры: Русские / Английские
Режиссер: Майкл Рэдфорд / Michael Radford
В ролях: Джон Хёрт (John Hurt), Ричард Бёртон (Richard Burton), Сюзанна Хэмилтон (Suzanna Hamilton), Сирил Кьюсак (Cyril Cusack), Грегор Фишер (Gregor Fisher), Джеймс Уолкер (James Walker), Эндрю Вильде (Andrew Wilde), Дэвид Тревена (David Trevena), Дэвид Канн (David Cann), Энтони Бенсон (Anthony Benson) и другие.
Описание: Для подавления массовых волнений Океании правящая партия заново воссоздает прошлое и настоящее. За каждым гражданином неусыпно наблюдают, каждому с помощью телевидения промывают мозги. И даже двое любовников вынуждены скрывать свои чувства, поскольку секс и межличностные отношения объявлены вне закона. [КиноПоиск]
Доп. Информация: Фильм снят по одноименному роману Джорджа Оруэлла, чтиво которого можно найти здесь. А тут находится ранняя версия экранизации данного романа.
Личная благодарность: Товарищу Softernet`у за синхронизацию материала. Отдельное спасибо lizing48 за MVO - "Совэкспортфильм", и J silver за DVO - "НТВ+".
Качество: HDTV
Контейнер: MKV
Видео: MPEG2 / 17.2 Mbps / 1080i / 29.970 fps / 16:9
Аудио 1: Russian / Dolby AC3 / 2.0 / 48 kHz / 192 kbps / 16 bit - [MVO]
Аудио 2: Russian / Dolby AC3 / 2.0 / 48 kHz / 192 kbps / 16 bit - [DVO]
Аудио 3: Russian / Dolby AC3 / 2.0 / 48 kHz / 192 kbps / 16 bit - [VO]
Аудио 4: English / Dolby AC3 / 2.0 / 48 kHz / 192 kbps / 16 bit

MediaInfo

Формат : Matroska
Версия формата : Version 4 / Version 2
Размер файла : 14,1 Гбайт
Продолжительность : 1 ч. 50 м.
Режим общего битрейта : Переменный
Общий поток : 18,3 Мбит/сек
Дата кодирования : UTC 2014-09-12 17:10:36
Программа кодирования : mkvmerge v7.1.0 ('Good Love') 64bit built on Jul 27 2014 13:06:55
Библиотека кодирования : libebml v1.3.0 + libmatroska v1.4.1
DURATION : 01:46:04.721000000
NUMBER_OF_FRAMES : 1081
NUMBER_OF_BYTES : 35955
_STATISTICS_WRITING_APP : mkvmerge v7.1.0 ('Good Love') 64bit built on Jul 27 2014 13:06:55
_STATISTICS_WRITING_DATE_UTC : 2014-09-12 17:10:36
_STATISTICS_TAGS : BPS DURATION NUMBER_OF_FRAMES NUMBER_OF_BYTES
Видео
Идентификатор : 1
Формат : MPEG Video
Версия формата : Version 2
Профиль формата : Main@High
Параметр BVOP формата : Нет
Параметр матрицы формата : Выборочная
Format_Settings_PictureStructure : Frame
Идентификатор кодека : V_MPEG2
Идентификатор кодека/Информация : MPEG 1 or 2 Video
Продолжительность : 1 ч. 50 м.
Вид битрейта : Переменный
Битрейт : 17,2 Мбит/сек
Максимальный битрейт : 65,0 Мбит/сек
Ширина : 1920 пикселей
Высота : 1080 пикселей
Соотношение сторон : 16:9
Режим частоты кадров : Постоянный
Частота кадров : 29,970 кадров/сек
Цветовое пространство : YUV
Субдискретизация насыщенности : 4:2:0
Битовая глубина : 8 бит
Тип развёртки : Чересстрочная
Порядок развёртки : Верхнее поле первое
Метод сжатия : С потерями
Бит/(Пиксели*Кадры) : 0.276
Временной код первого кадра : 21:35:45;16
Оригинал временного кода : Group of pictures header
Размер потока : 13,2 Гбайт (94%)
Default : Да
Forced : Нет
Аудио #1
Идентификатор : 2
Формат : AC-3
Формат/Информация : Audio Coding 3
Расширение режима : CM (complete main)
Параметр Endianness формата : Big
Идентификатор кодека : A_AC3
Продолжительность : 1 ч. 50 м.
Вид битрейта : Постоянный
Битрейт : 192 Кбит/сек
Каналы : 2 канала
Расположение каналов : Front: L R
Частота : 48,0 КГц
Битовая глубина : 16 бит
Метод сжатия : С потерями
Размер потока : 152 Мбайт (1%)
Заголовок : MVO [Совэкспортфильм]
Язык : Russian
Default : Нет
Forced : Нет
Аудио #2
Идентификатор : 3
Формат : AC-3
Формат/Информация : Audio Coding 3
Расширение режима : CM (complete main)
Параметр Endianness формата : Big
Идентификатор кодека : A_AC3
Продолжительность : 1 ч. 50 м.
Вид битрейта : Постоянный
Битрейт : 192 Кбит/сек
Каналы : 2 канала
Расположение каналов : Front: L R
Частота : 48,0 КГц
Битовая глубина : 16 бит
Метод сжатия : С потерями
Размер потока : 152 Мбайт (1%)
Заголовок : DVO [НТВ+]
Язык : Russian
Default : Нет
Forced : Нет
Аудио #3
Идентификатор : 4
Формат : AC-3
Формат/Информация : Audio Coding 3
Расширение режима : CM (complete main)
Параметр Endianness формата : Big
Идентификатор кодека : A_AC3
Продолжительность : 1 ч. 50 м.
Вид битрейта : Постоянный
Битрейт : 192 Кбит/сек
Каналы : 2 канала
Расположение каналов : Front: L R
Частота : 48,0 КГц
Битовая глубина : 16 бит
Метод сжатия : С потерями
Размер потока : 152 Мбайт (1%)
Заголовок : VO
Язык : Russian
Default : Нет
Forced : Нет
Аудио #4
Идентификатор : 5
Формат : AC-3
Формат/Информация : Audio Coding 3
Расширение режима : CM (complete main)
Параметр Endianness формата : Big
Идентификатор кодека : A_AC3
Продолжительность : 1 ч. 50 м.
Вид битрейта : Постоянный
Битрейт : 192 Кбит/сек
Каналы : 2 канала
Расположение каналов : Front: L R
Частота : 48,0 КГц
Битовая глубина : 16 бит
Метод сжатия : С потерями
Размер потока : 152 Мбайт (1%)
Заголовок : Original
Язык : English
Default : Нет
Forced : Нет
Текст #1
Идентификатор : 6
Формат : UTF-8
Идентификатор кодека : S_TEXT/UTF8
Идентификатор кодека/Информация : UTF-8 Plain Text
Язык : Russian
Default : Нет
Forced : Нет
Текст #2
Идентификатор : 7
Формат : UTF-8
Идентификатор кодека : S_TEXT/UTF8
Идентификатор кодека/Информация : UTF-8 Plain Text
Язык : English
Default : Нет
Forced : Нет

Скриншоты




Показать сообщения:    

Текущее время: 04-Дек 15:17

Часовой пояс: UTC + 3


Вы не можете начинать темы
Вы не можете отвечать на сообщения
Вы не можете редактировать свои сообщения
Вы не можете удалять свои сообщения
Вы не можете голосовать в опросах
Вы не можете прикреплять файлы к сообщениям
Вы не можете скачивать файлы