Русалочка / Malá morská víla / The Little Mermaid (Карел Кахиня / Karel Kachyna) [1976, Чехословакия, сказка, фэнтези, HDTVRip 720p] MVO + Sub Eng + Original Cze


 

[Цитировать]

Русалочка / Malá morská víla / The Little Mermaid
Страна: Чехословакия
Жанр: сказка, фэнтези
Год выпуска: 1976
Продолжительность: 01:26:08
Перевод: Профессиональный (многоголосый закадровый)
Cубтитры: английские
Оригинальная аудиодорожка: чешский
Режиссер: Карел Кахиня / Karel Kachyna
В ролях: Мирослава Шафранкова, Радован Лукавски, Петр Свойтка, Либуше Шафранкова, Мария Росулкова, Милена Дворска, Индржих Нарента, Иржи Орнест, Дагмар Патрасова
Описание: Русалочка, одна из дочерей морского царя, увидев принца на палубе роскошного корабля, влюбляется в него. Но во время бури корабль разбивается о скалу, и все его пассажиры оказываются в воде. Русалочка, не раздумывая ни минуты, бросается на помощь и спасает своего возлюбленного от гибели.
На берегу лежащего без сознания принца находит другая девушка. Придя в себя, он решает, что эта девушка и есть его спасительница. Но любовь Русалочки к прекрасному принцу так сильна, что ради нее она готова пойти на любые жертвы — боль, немоту и даже смерть…

Доп. информация:


Тип релиза: HDTVRip 720p (thnx DON) | sample
Контейнер: MKV
Видео: H.264/AVC, 984x720, 4:3, 25.00fps, 9000 Kbps
Аудио: Russian, DD 2.0, 48 kHz, 192 Kbps
Аудио 2: Czech, D 2.0, 48 kHz, 448 Kbps
Формат субтитров: softsub (SRT)

MI

General
Unique ID                                : 249616704682380657866058807689526372796 (0xBBCA6DB9D30FD80FBD5ECFA1D92FE9BC)
Complete name                            : Mala.morska.vila.1976.720p.HDTV.x264.rus.cze.mkv
Format                                   : Matroska
Format version                           : Version 4 / Version 2
File size                                : 5.80 GiB
Duration                                 : 1h 26mn
Overall bit rate                         : 9 640 Kbps
Movie name                               : Malá mořská víla (1976)
Encoded date                             : UTC 2014-09-10 07:51:03
Writing application                      : mkvmerge v7.1.0 ('Good Love') 64bit built on Jul 27 2014 13:06:55
Writing library                          : libebml v1.3.0 + libmatroska v1.4.1
DURATION                                 : 01:26:07.808000000
NUMBER_OF_FRAMES                         : 161494
NUMBER_OF_BYTES                          : 124027392
_STATISTICS_WRITING_APP                  : mkvmerge v7.1.0 ('Good Love') 64bit built on Jul 27 2014 13:06:55
_STATISTICS_WRITING_DATE_UTC             : 2014-09-10 07:51:03
_STATISTICS_TAGS                         : BPS DURATION NUMBER_OF_FRAMES NUMBER_OF_BYTES
Video
ID                                       : 1
Format                                   : AVC
Format/Info                              : Advanced Video Codec
Format profile                           : High@L4.1
Format settings, CABAC                   : Yes
Format settings, ReFrames                : 11 frames
Codec ID                                 : V_MPEG4/ISO/AVC
Duration                                 : 1h 26mn
Bit rate                                 : 9 000 Kbps
Width                                    : 984 pixels
Height                                   : 720 pixels
Display aspect ratio                     : 4:3
Frame rate mode                          : Constant
Frame rate                               : 25.000 fps
Color space                              : YUV
Chroma subsampling                       : 4:2:0
Bit depth                                : 8 bits
Scan type                                : Progressive
Bits/(Pixel*Frame)                       : 0.508
Stream size                              : 5.30 GiB (91%)
Writing library                          : x264 core 140 r2377 1ca7bb9
Encoding settings                        : cabac=1 / ref=11 / deblock=1:-3:-3 / analyse=0x3:0x133 / me=tesa / subme=10 / psy=1 / psy_rd=1.10:0.00 / mixed_ref=1 / me_range=24 / chroma_me=1 / trellis=2 / 8x8dct=1 / cqm=0 / deadzone=21,11 / fast_pskip=0 / chroma_qp_offset=-2 / threads=12 / lookahead_threads=2 / sliced_threads=0 / nr=0 / decimate=0 / interlaced=0 / bluray_compat=0 / constrained_intra=0 / bframes=8 / b_pyramid=2 / b_adapt=2 / b_bias=0 / direct=3 / weightb=1 / open_gop=0 / weightp=2 / keyint=250 / keyint_min=25 / scenecut=40 / intra_refresh=0 / rc_lookahead=60 / rc=2pass / mbtree=0 / bitrate=9000 / ratetol=1.0 / qcomp=0.70 / qpmin=0 / qpmax=69 / qpstep=4 / cplxblur=20.0 / qblur=0.5 / vbv_maxrate=62500 / vbv_bufsize=78125 / nal_hrd=none / filler=0 / ip_ratio=1.20 / pb_ratio=1.10 / aq=1:0.60
Language                                 : Czech
Default                                  : Yes
Forced                                   : No
Audio #1
ID                                       : 2
Format                                   : AC-3
Format/Info                              : Audio Coding 3
Mode extension                           : CM (complete main)
Format settings, Endianness              : Big
Codec ID                                 : A_AC3
Duration                                 : 1h 26mn
Bit rate mode                            : Constant
Bit rate                                 : 192 Kbps
Channel(s)                               : 2 channels
Channel positions                        : Front: L R
Sampling rate                            : 48.0 KHz
Bit depth                                : 16 bits
Compression mode                         : Lossy
Stream size                              : 118 MiB (2%)
Title                                    : MVO
Language                                 : Russian
Default                                  : Yes
Forced                                   : No
Audio #2
ID                                       : 3
Format                                   : AC-3
Format/Info                              : Audio Coding 3
Mode extension                           : CM (complete main)
Format settings, Endianness              : Big
Codec ID                                 : A_AC3
Duration                                 : 1h 26mn
Bit rate mode                            : Constant
Bit rate                                 : 448 Kbps
Channel(s)                               : 2 channels
Channel positions                        : Front: L R
Sampling rate                            : 48.0 KHz
Bit depth                                : 16 bits
Compression mode                         : Lossy
Stream size                              : 276 MiB (5%)
Language                                 : Czech
Default                                  : No
Forced                                   : No
Text
ID                                       : 4
Format                                   : UTF-8
Codec ID                                 : S_TEXT/UTF8
Codec ID/Info                            : UTF-8 Plain Text
Language                                 : English
Default                                  : No
Forced                                   : No



Показать сообщения:    

Текущее время: 05-Дек 01:22

Часовой пояс: UTC + 3


Вы не можете начинать темы
Вы не можете отвечать на сообщения
Вы не можете редактировать свои сообщения
Вы не можете удалять свои сообщения
Вы не можете голосовать в опросах
Вы не можете прикреплять файлы к сообщениям
Вы не можете скачивать файлы