Стреляйте в пианиста / Tirez sur le pianiste / Shoot the Piano Player / Shoot the Pianist (Франсуа Трюффо / François Truffaut) [1960 г., Франция, драма, криминал, BDRip 1080p] 2x MVO (Кармен Видео, SomeWax) + Original Fre + Sub (Rus, Eng, Fre)


 

[Цитировать]

Стреляйте в пианиста / Tirez sur le pianiste- Год выпуска: 1960
Страна: Франция
Жанр: драма, криминал
Продолжительность: 01:21:17
Перевод 1: Профессиональный (многоголосый закадровый) Кармен Видео
Перевод 2: Профессиональный (многоголосый закадровый) SomeWax
Оригинальная аудиодорожка: Французская
Cубтитры: Русские (R5), английские (полные, на комментарии), французские-Режиссер: Франсуа Трюффо / François Truffaut
В ролях: Шарль Азнавур, Мари Дюбуа, Николь Берже, Мишель Мерсье, Серж Даври, Клод Мансар, Ришар Канаян, Альбер Реми, Жан-Жак Асланян, Даниэль Буланже-Описание:
По роману Дэвида Гудиса "Там, внизу".
Пытаясь забыть о трагедии, некогда известный пианист Эдвард Сароян работает в баре под именем Шарли Колера. Но его попытки скрыться от жизни безуспешны: Шарли влюбляется в официантку Лену. Комично робея при виде Лены, Шарли между тем с легкостью заводит интригу со своей соседкой — проституткой Клариссой.
В баре появляется Чико, брат Шарли, за которым гонятся двое гангстеров. Шарли не может отказать брату и помогает ему уйти от погони. Но он не подозревает, что теперь он невольно впутал в бандитские разборки не только себя, но и Лену, и своего младшего брата Фидо…-За "Кармен" спасибо L. Lacombe, за "SomeWax" – AnryV.
| IMDb | Сэмпл-Качество: BDRip 1080p (SPLiTSViLLE)
Контейнер: MKV
Видео: x264, 1920x816 (2.35:1), 24 fps, 8969 kbps
Аудио 1: Русский AС3, 2.0, 48 kHz, 192 kbps — Кармен Видео
Аудио 2: Русский AС3, 2.0, 48 kHz, 192 kbps — SomeWax
Аудио 3: Французский FLAC 2.0, 48 kHz, 266 kbps, 16-bit
Аудио 4: Французский AAC 2.0, 48 kHz, 62 kbps — Комментарии
Формат субтитров: softsub (SRT)

Скриншоты


MI

General
Unique ID : 173773685159528934678078355056873901030 (0x82BB982941B01E6EADE38DF949EB0BE6)
Complete name : Shoot.the.Pianist.1960.1080p.BluRay.x264-SPLiTSViLLE.mkv
Format : Matroska
Format version : Version 2
File size : 5.50 GiB
Duration : 1h 21mn
Overall bit rate mode : Variable
Overall bit rate : 9 685 Kbps
Movie name : Tirez sur le pianiste / Стреляйте в пианиста (1960) – RuTracker
Encoded date : UTC 2014-09-09 20:42:10
Writing application : mkvmerge v7.0.0 ('Where We Going') 64bit built on Jun 9 2014 15:16:27
Writing library : libebml v1.3.0 + libmatroska v1.4.1
Attachment : Yes
Video
ID : 1
Format : AVC
Format/Info : Advanced Video Codec
Format profile : High@L4.1
Format settings, CABAC : Yes
Format settings, ReFrames : 5 frames
Codec ID : V_MPEG4/ISO/AVC
Duration : 1h 21mn
Nominal bit rate : 8 970 Kbps
Width : 1 920 pixels
Height : 816 pixels
Display aspect ratio : 2.35:1
Frame rate mode : Constant
Frame rate : 24.000 fps
Color space : YUV
Chroma subsampling : 4:2:0
Bit depth : 8 bits
Scan type : Progressive
Bits/(Pixel*Frame) : 0.239
Title : Shoot.the.Pianist.1960.1080P.BluRay.x264-SPLiTSViLLE
Writing library : x264 core 142 r2431 ac76440
Encoding settings : cabac=1 / ref=5 / deblock=1:0:0 / analyse=0x3:0x133 / me=umh / subme=8 / psy=1 / psy_rd=1.00:0.00 / mixed_ref=1 / me_range=16 / chroma_me=1 / trellis=1 / 8x8dct=1 / cqm=0 / deadzone=21,11 / fast_pskip=0 / chroma_qp_offset=-2 / threads=12 / lookahead_threads=2 / sliced_threads=0 / nr=0 / decimate=1 / interlaced=0 / bluray_compat=0 / constrained_intra=0 / bframes=3 / b_pyramid=2 / b_adapt=2 / b_bias=0 / direct=3 / weightb=1 / open_gop=0 / weightp=2 / keyint=250 / keyint_min=24 / scenecut=40 / intra_refresh=0 / rc_lookahead=50 / rc=2pass / mbtree=1 / bitrate=8970 / ratetol=1.0 / qcomp=0.60 / qpmin=0 / qpmax=69 / qpstep=4 / cplxblur=20.0 / qblur=0.5 / ip_ratio=1.40 / aq=1:1.00
Language : French
Default : Yes
Forced : No
Audio #1
ID : 2
Format : AC-3
Format/Info : Audio Coding 3
Mode extension : CM (complete main)
Format settings, Endianness : Big
Codec ID : A_AC3
Duration : 1h 21mn
Bit rate mode : Constant
Bit rate : 192 Kbps
Channel(s) : 2 channels
Channel positions : Front: L R
Sampling rate : 48.0 KHz
Bit depth : 16 bits
Compression mode : Lossy
Stream size : 112 MiB (2%)
Title : MVO – Кармен Видео
Language : Russian
Default : Yes
Forced : No
Audio #2
ID : 3
Format : AC-3
Format/Info : Audio Coding 3
Mode extension : CM (complete main)
Format settings, Endianness : Big
Codec ID : A_AC3
Duration : 1h 21mn
Bit rate mode : Constant
Bit rate : 192 Kbps
Channel(s) : 2 channels
Channel positions : Front: L R
Sampling rate : 48.0 KHz
Bit depth : 16 bits
Compression mode : Lossy
Stream size : 112 MiB (2%)
Title : MVO – SomeWax
Language : Russian
Default : No
Forced : No
Audio #3
ID : 4
Format : FLAC
Format/Info : Free Lossless Audio Codec
Codec ID : A_FLAC
Duration : 1h 21mn
Bit rate mode : Variable
Channel(s) : 2 channels
Sampling rate : 48.0 KHz
Bit depth : 16 bits
Title : Original
Writing library : libFLAC 1.2.1 (UTC 2007-09-17)
Language : French
Default : No
Forced : No
Audio #4
ID : 5
Format : AAC
Format/Info : Advanced Audio Codec
Format profile : LC
Codec ID : A_AAC
Duration : 1h 21mn
Channel(s) : 2 channels
Channel positions : Front: L R
Sampling rate : 48.0 KHz
Compression mode : Lossy
Delay relative to video : 9ms
Title : Сommentary by Raoul Coutard
Language : French
Default : No
Forced : No
Text #1
ID : 6
Format : UTF-8
Codec ID : S_TEXT/UTF8
Codec ID/Info : UTF-8 Plain Text
Title : R5
Language : Russian
Default : No
Forced : No
Text #2
ID : 7
Format : UTF-8
Codec ID : S_TEXT/UTF8
Codec ID/Info : UTF-8 Plain Text
Language : English
Default : No
Forced : No
Text #3
ID : 8
Format : UTF-8
Codec ID : S_TEXT/UTF8
Codec ID/Info : UTF-8 Plain Text
Language : French
Default : No
Forced : No
Text #4
ID : 9
Format : UTF-8
Codec ID : S_TEXT/UTF8
Codec ID/Info : UTF-8 Plain Text
Title : Commentary
Language : English
Default : No
Forced : No
Menu
00:00:00.000 : en:Chapter 01
00:06:33.250 : en:Chapter 02
00:12:32.208 : en:Chapter 03
00:17:10.375 : en:Chapter 04
00:22:52.833 : en:Chapter 05
00:29:37.166 : en:Chapter 06
00:38:13.416 : en:Chapter 07
00:45:11.208 : en:Chapter 08
00:51:36.000 : en:Chapter 09
00:58:30.125 : en:Chapter 10
01:07:33.000 : en:Chapter 11
01:15:49.833 : en:Chapter 12



Показать сообщения:    

Текущее время: 11-Дек 13:03

Часовой пояс: UTC + 3


Вы не можете начинать темы
Вы не можете отвечать на сообщения
Вы не можете редактировать свои сообщения
Вы не можете удалять свои сообщения
Вы не можете голосовать в опросах
Вы не можете прикреплять файлы к сообщениям
Вы не можете скачивать файлы