Страх / Angst (Геральд Каргль / Gerald Kargl) [1983, Австрия, Ужасы, драма, криминал, BDRip 720p] VO (Лыдин) + Sub (Rus, Eng) + Original Ger


 

[Цитировать]

Страх / Angst Страна: Австрия
Студия: Gerald Kargl
Жанр: Ужасы, драма, криминал
Год выпуска: 1983
Продолжительность: 01:18:52
Перевод: Одноголосый закадровый - Алексей Лыдин
Cубтитры: русские, английские
Оригинальная аудиодорожка: немецкий
Режиссер: Геральд Каргль / Gerald Kargl
В ролях: Эрвин Ледер, Роберт Хунгер-Бюлер, Сильвия Рабенрейтер, Карин Спрингер, Эдит Россет, Жозефина Лаката, Рудольф Готц, Ренате Кастелик, Хэрман Гройссенбергер, Клаудия Шинко
Описание: Герой оказывается на свободе после десяти лет тюрьмы, куда попал за убийство пожилой женщины, и сразу же начинает искать новых жертв.
Тип релиза: BDRip 720p
Контейнер: MKV
Видео: MPEG-4 AVC, 1280x720, 7158 Кбит/с, 23.976 кадр/с
Аудио#1: AC3, 2ch, 192 Кбит/с, 48.0 KHz (Русский)
Аудио#2: DTS, 1ch, 768 Кбит/с, 48.0 KHz (Немецкий)
Формат субтитров: softsub (SRT)
Релиз: Автор рипа:

Интересные факты

- Саундтрек, написанный одним из пионеров электронной музыки Клаусом Шульце, едва ли не более знаменит, чем сам фильм.
- Помимо необычных ракурсов и полетов камеры, в картине активно используется прием SnorriCam ("как в клипе с Миком Джаггером").
- Оператором, монтажером и соавтором сценария выступил знаменитый мультипликатор, обладатель "Оскара", Збигнев Рыбчинский.
- Большими поклонниками фильма являются Гаспар Ноэ и Йорг Буттгерайт.
- В основу сценария положено реальное дело серийного убийцы Вернера Книзека, а внутренний монолог героя построен на цитатах из признаний другого маньяка, Петера Кюртена, известного так же как "Вампир из Дюссельдорфа".

MediaInfo

General
Unique ID : 178048074869849889799313911489710528378 (0x85F2CFD83C29C3DA824D4B38B6D8177A)
Complete name : C:\Users\пк\Desktop\Angst (1983).mkv
Format : Matroska
Format version : Version 4 / Version 2
File size : 4.47 GiB
Duration : 1h 18mn
Overall bit rate mode : Variable
Overall bit rate : 8 120 Kbps
Encoded date : UTC 2014-09-07 17:25:20
Writing application : mkvmerge v7.0.0 ('Where We Going') 64bit built on Jun 9 2014 15:16:27
Writing library : libebml v1.3.0 + libmatroska v1.4.1
_STATISTICS_WRITING_APP : mkvmerge v7.0.0 ('Where We Going') 64bit built on Jun 9 2014 15:16:27
_STATISTICS_WRITING_DATE_UTC : 2014-09-07 17:25:20
_STATISTICS_TAGS : BPS DURATION NUMBER_OF_FRAMES NUMBER_OF_BYTES
DURATION : 01:16:20.400000000
NUMBER_OF_FRAMES : 324
NUMBER_OF_BYTES : 19609
Video
ID : 1
Format : AVC
Format/Info : Advanced Video Codec
Format profile : High@L4.0
Format settings, CABAC : Yes
Format settings, ReFrames : 3 frames
Codec ID : V_MPEG4/ISO/AVC
Duration : 1h 18mn
Bit rate mode : Variable
Bit rate : 7 158 Kbps
Maximum bit rate : 25.0 Mbps
Width : 1 280 pixels
Height : 720 pixels
Display aspect ratio : 16:9
Frame rate mode : Constant
Frame rate : 24.000 fps
Color space : YUV
Chroma subsampling : 4:2:0
Bit depth : 8 bits
Scan type : Progressive
Bits/(Pixel*Frame) : 0.324
Stream size : 3.86 GiB (86%)
Writing library : x264 core 125 r2200 999b753
Encoding settings : cabac=1 / ref=3 / deblock=1:0:0 / analyse=0x3:0x113 / me=hex / subme=7 / psy=1 / psy_rd=1.00:0.00 / mixed_ref=1 / me_range=16 / chroma_me=1 / trellis=1 / 8x8dct=1 / cqm=0 / deadzone=21,11 / fast_pskip=1 / chroma_qp_offset=-2 / threads=6 / lookahead_threads=1 / sliced_threads=0 / nr=0 / decimate=1 / interlaced=0 / bluray_compat=0 / constrained_intra=0 / bframes=3 / b_pyramid=0 / b_adapt=1 / b_bias=0 / direct=1 / weightb=1 / open_gop=0 / weightp=2 / keyint=240 / keyint_min=24 / scenecut=40 / intra_refresh=0 / rc_lookahead=40 / rc=2pass / mbtree=1 / bitrate=7158 / ratetol=1.0 / qcomp=0.60 / qpmin=0 / qpmax=69 / qpstep=4 / cplxblur=20.0 / qblur=0.5 / vbv_maxrate=25000 / vbv_bufsize=25000 / nal_hrd=vbr / ip_ratio=1.40 / aq=1:1.00
Default : Yes
Forced : No
Audio #1
ID : 2
Format : AC-3
Format/Info : Audio Coding 3
Mode extension : CM (complete main)
Format settings, Endianness : Big
Codec ID : A_AC3
Duration : 1h 18mn
Bit rate mode : Constant
Bit rate : 192 Kbps
Channel(s) : 2 channels
Channel positions : Front: L R
Sampling rate : 48.0 KHz
Bit depth : 16 bits
Compression mode : Lossy
Stream size : 108 MiB (2%)
Language : Russian
Default : Yes
Forced : No
Audio #2
ID : 3
Format : DTS
Format/Info : Digital Theater Systems
Mode : 16
Format settings, Endianness : Big
Codec ID : A_DTS
Duration : 1h 18mn
Bit rate mode : Constant
Bit rate : 768 Kbps
Channel(s) : 1 channel
Channel positions : Front: C
Sampling rate : 48.0 KHz
Bit depth : 24 bits
Compression mode : Lossy
Stream size : 433 MiB (9%)
Language : German
Default : No
Forced : No
Text #1
ID : 4
Format : UTF-8
Codec ID : S_TEXT/UTF8
Codec ID/Info : UTF-8 Plain Text
Language : Russian
Default : No
Forced : No
Text #2
ID : 5
Format : UTF-8
Codec ID : S_TEXT/UTF8
Codec ID/Info : UTF-8 Plain Text
Language : English
Default : No
Forced : No
Menu
00:00:00.000 : en:00:00:00.000
00:09:56.708 : en:00:09:56.708
00:22:21.208 : en:00:22:21.208
00:32:31.208 : en:00:32:31.208
00:38:46.708 : en:00:38:46.708
00:47:49.708 : en:00:47:49.708
01:01:20.833 : en:01:01:20.833
01:11:43.708 : en:01:11:43.708

Скриншоты




Показать сообщения:    

Текущее время: 10-Дек 08:02

Часовой пояс: UTC + 3


Вы не можете начинать темы
Вы не можете отвечать на сообщения
Вы не можете редактировать свои сообщения
Вы не можете удалять свои сообщения
Вы не можете голосовать в опросах
Вы не можете прикреплять файлы к сообщениям
Вы не можете скачивать файлы