Строшек / Stroszek (Вернер Херцог / Werner Herzog) [1977, Германия (ФРГ), драма, BDRip 720p] VO + Sub Eng + Original Ger


 

[Цитировать]

Строшек / Stroszek
Страна: Германия
Жанр: драма
Год выпуска: 1977
Продолжительность: 01:47:52
Перевод: Одноголосый закадровый
Cубтитры: английские
Оригинальная аудиодорожка: немецкий
Режиссер: Вернер Херцог / Werner Herzog
В ролях: Бруно С., Эва Маттес, Вильхельм фон Хомбург, Бюкхард Дрист, Клайтон Шальпински, Эли Родригез, Альфред Эдел, Скотт МакКейн, Ральф Вэйд
Описание: Бруно Строшек, недавно вышел из тюрьмы и подрабатывает в качестве уличного музыканта. Вместе со своей подругой-проституткой (Маттес) и своим давним знакомым, милым старичком (Шайтц), Бруно отправляется искать счастья в Америку. Однако вместо сверкающей небоскребами "американской мечты" они оказываются среди бескрайних и унылых равнин Висконсина. Фильм показывает Америку глазами европейца, и взгляд этот беспощаден, выхватывая из пестрого и шумного многообразия потрясающие детали. Hесмотря на кажущуюся легкость, это фильм об отчаянии, которое к концу картины становится всеобъемлющим.
Доп. информация:


издание BFI
Тип релиза: BDRip 720p | sample
Контейнер: MKV
Видео: H.264/AVC, 1196x720, 1.66:1, 24.00fps, ~7850 Kbps
Аудио: Russian, DD 2.0, 48 kHz, 192 Kbps
Аудио 2: German, FLAC 1.0, 48 kHz, ~350 Kbps
Аудио 3: English (commentary), Vorbis 2.0, 48 kHz, ~80 Kbps
Формат субтитров: softsub (SRT)

MI

General
Unique ID : 225639641396789557644891881422042641109 (0xA9C09D3C4199E32A9340060C5D4F32D5)
Complete name : Stroszek 1977 720p Bluray FLAC rus ger.mkv
Format : Matroska
Format version : Version 4 / Version 2
File size : 5.91 GiB
Duration : 1h 47mn
Overall bit rate mode : Variable
Overall bit rate : 7 850 Kbps
Movie name : Stroszek (1977) - BFI Bluray
Encoded date : UTC 2014-09-07 12:20:59
Writing application : mkvmerge v7.1.0 ('Good Love') 64bit built on Jul 27 2014 13:06:55
Writing library : libebml v1.3.0 + libmatroska v1.4.1
_STATISTICS_WRITING_APP : mkvmerge v7.1.0 ('Good Love') 64bit built on Jul 27 2014 13:06:55
_STATISTICS_WRITING_DATE_UTC : 2014-09-07 12:20:59
_STATISTICS_TAGS : BPS DURATION NUMBER_OF_FRAMES NUMBER_OF_BYTES
DURATION : 01:47:52.096000000
NUMBER_OF_FRAMES : 202253
NUMBER_OF_BYTES : 155330304
Video
ID : 1
Format : AVC
Format/Info : Advanced Video Codec
Format profile : High@L4.1
Format settings, CABAC : Yes
Format settings, ReFrames : 9 frames
Codec ID : V_MPEG4/ISO/AVC
Duration : 1h 47mn
Width : 1 196 pixels
Height : 720 pixels
Display aspect ratio : 1.661
Frame rate mode : Constant
Frame rate : 24.000 fps
Color space : YUV
Chroma subsampling : 4:2:0
Bit depth : 8 bits
Scan type : Progressive
Writing library : x264 core 142 r2453kMod ea0ca51
Encoding settings : cabac=1 / ref=9 / deblock=1:-3:-3 / analyse=0x3:0x133 / me=tesa / subme=10 / psy=1 / fade_compensate=0.00 / psy_rd=1.10:0.00 / mixed_ref=1 / me_range=16 / chroma_me=1 / trellis=2 / 8x8dct=1 / cqm=0 / deadzone=21,11 / fast_pskip=1 / chroma_qp_offset=-2 / threads=6 / lookahead_threads=1 / sliced_threads=0 / nr=0 / decimate=1 / interlaced=0 / bluray_compat=0 / constrained_intra=0 / fgo=0 / bframes=7 / b_pyramid=2 / b_adapt=2 / b_bias=0 / direct=3 / weightb=1 / open_gop=0 / weightp=2 / keyint=250 / keyint_min=24 / scenecut=40 / intra_refresh=0 / rc_lookahead=60 / rc=crf / mbtree=0 / crf=17.0000 / qcomp=0.65 / qpmin=0 / qpmax=69 / qpstep=4 / vbv_maxrate=50000 / vbv_bufsize=62500 / crf_max=0.0 / nal_hrd=none / filler=0 / ip_ratio=1.30 / pb_ratio=1.20 / aq=1:0.70
Language : English
Default : Yes
Forced : No
_STATISTICS_WRITING_APP : mkvmerge v7.1.0 ('Good Love') 64bit built on Jul 27 2014 13:06:55
_STATISTICS_WRITING_DATE_UTC : 2014-09-07 12:20:59
_STATISTICS_TAGS : BPS DURATION NUMBER_OF_FRAMES NUMBER_OF_BYTES
DURATION : 01:47:51.167000000
NUMBER_OF_FRAMES : 155308
NUMBER_OF_BYTES : 5850742231
Audio #1
ID : 2
Format : AC-3
Format/Info : Audio Coding 3
Mode extension : CM (complete main)
Format settings, Endianness : Big
Codec ID : A_AC3
Duration : 1h 47mn
Bit rate mode : Constant
Bit rate : 192 Kbps
Channel(s) : 2 channels
Channel positions : Front: L R
Sampling rate : 48.0 KHz
Bit depth : 16 bits
Compression mode : Lossy
Stream size : 148 MiB (2%)
Title : VO
Language : Russian
Default : Yes
Forced : No
Audio #2
ID : 3
Format : FLAC
Format/Info : Free Lossless Audio Codec
Codec ID : A_FLAC
Duration : 1h 47mn
Bit rate mode : Variable
Channel(s) : 1 channel
Sampling rate : 48.0 KHz
Bit depth : 16 bits
Writing library : libFLAC 1.2.1 (UTC 2007-09-17)
Language : German
Default : No
Forced : No
Audio #3
ID : 4
Format : Vorbis
Format settings, Floor : 1
Codec ID : A_VORBIS
Duration : 1h 47mn
Bit rate mode : Variable
Bit rate : 80.0 Kbps
Channel(s) : 2 channels
Sampling rate : 48.0 KHz
Compression mode : Lossy
Stream size : 61.7 MiB (1%)
Title : commentary
Writing library : Lancer 20110424 (UTC 2011-04-24)
Language : English
Default : No
Forced : No
Text #1
ID : 5
Format : UTF-8
Codec ID : S_TEXT/UTF8
Codec ID/Info : UTF-8 Plain Text
Language : English
Default : No
Forced : No
Text #2
ID : 6
Format : PGS
Muxing mode : zlib
Codec ID : S_HDMV/PGS
Codec ID/Info : The same subtitle format used on BDs/HD-DVDs
Language : English
Default : No
Forced : No
Menu
00:00:00.000 : en:00:00:00.000
00:08:54.625 : en:00:08:54.625
00:18:55.125 : en:00:18:55.125
00:35:41.958 : en:00:35:41.958
00:42:04.250 : en:00:42:04.250
00:56:19.208 : en:00:56:19.208
01:02:44.875 : en:01:02:44.875
01:14:06.750 : en:01:14:06.750
01:20:29.667 : en:01:20:29.667
01:26:06.042 : en:01:26:06.042
01:29:21.500 : en:01:29:21.500
01:39:20.333 : en:01:39:20.333

Скриншоты




Показать сообщения:    

Текущее время: 06-Дек 20:53

Часовой пояс: UTC + 3


Вы не можете начинать темы
Вы не можете отвечать на сообщения
Вы не можете редактировать свои сообщения
Вы не можете удалять свои сообщения
Вы не можете голосовать в опросах
Вы не можете прикреплять файлы к сообщениям
Вы не можете скачивать файлы