Свяжи меня / Átame! / Tie Me Up! Tie Me Down! (Педро Альмодовар / Pedro Almodovar) [1990, Испания, драма, мелодрама, комедия, BDRip 720p] [Criterion Collection] MVO + DVO + AVO (Гаврилов) + Sub Rus, Eng + Original Spa


 

[Цитировать]

Свяжи меня / Átame! / Tie Me Up! Tie Me Down!
Страна: Испания
Жанр: драма, мелодрама, комедия
Год выпуска: 1990
Продолжительность: 01:42:04
Перевод: Профессиональный (многоголосый закадровый) Кармен-Видео
Перевод: Профессиональный (двухголосый закадровый)
Перевод: Авторский (одноголосый закадровый) Андрей Гаврилов
Cубтитры: русские, английские
Оригинальная аудиодорожка: испанский-Режиссер: Педро Альмодовар / Pedro Almodovar
В ролях: Виктория Абриль, Антонио Бандерас, Лолес Леон, Хульета Серрано, Мария Барранко, Росси де Пальма, Франсиско Рабаль, Лола Кардона, Монце Дж. Ромеу, Эмильяно Редондо
Описание: Провокационная мелодрама, приправленная фарсом, о нестандартном пути к сближению.
Одиночка Рики, выписавшись из психиатрической больницы, хочет начать полноценную, счастливую жизнь… и похищает порноактрису-наркоманку. Когда-то Марина за деньги провела с ним единственную ночь, а он, влюбившись, обещал вернуться. Но разъяренная девушка не высказывает взаимности. Рики уверен, что это вопрос времени, и держит пленницу под домашним арестом, периодически привязывая ее к кровати. Он искренне клянется, что станет хорошим мужем и отцом их будущих детей.
IMDb || КиноПоиск-Тип релиза: BDRip 720p [DON]
Контейнер: MKV
Видео: x264/AVC, 1280x692 at 23.976 fps, 11.8 Mbps
Аудио#1: Russian: 48 kHz, AC3, 2.0 ch, 192 kbps |Кармен-Видео
Аудио#2: Russian: 48 kHz, AC3, 2.0 ch, 192 kbps
Аудио#3: Russian: 48 kHz, AC3, 2.0 ch, 224 kbps |А.Гаврилов
Аудио#4: English: 48 kHz, AC3, 5.1 ch, 640 kbps
Формат субтитров: softsub (SRT)
Сэмпл

MediaInfo

General
Unique ID : 180141674807638652641708645346163010124 (0x8786064A822EDAC2B251FFAE48ABAA4C)
Complete name : K:\Atame!.1989.Criterion.720p-DON. rutracker.mkv
Format : Matroska
Format version : Version 2
File size : 9.52 GiB
Duration : 1h 42mn
Overall bit rate : 13.4 Mbps
Movie name : Release for RuTracker
Encoded date : UTC 2014-09-04 08:07:27
Writing application : mkvmerge v5.0.1 ('Es ist Sommer') built on Nov 6 2011 16:23:40
Writing library : libebml v1.2.2 + libmatroska v1.3.0
Video
ID : 1
Format : AVC
Format/Info : Advanced Video Codec
Format profile : High@L4.1
Format settings, CABAC : Yes
Format settings, ReFrames : 9 frames
Codec ID : V_MPEG4/ISO/AVC
Duration : 1h 42mn
Bit rate : 11.8 Mbps
Width : 1 280 pixels
Height : 692 pixels
Display aspect ratio : 1.85:1
Frame rate mode : Constant
Frame rate : 23.976 fps
Color space : YUV
Chroma subsampling : 4:2:0
Bit depth : 8 bits
Scan type : Progressive
Bits/(Pixel*Frame) : 0.558
Stream size : 8.44 GiB (89%)
Title : Atame!.1989.Criterion.720p-DON. rutracker
Writing library : x264 core 142 r2409+42 04be48a tMod [8-bit@all X86_64]
Encoding settings : cabac=1 / ref=9 / deblock=1:-3:-3 / analyse=0x3:0x133 / me=esa / subme=10 / psy=1 / fade_compensate=0.00 / psy_rd=0.95:0.00 / mixed_ref=1 / me_range=32 / chroma_me=1 / trellis=2 / 8x8dct=1 / cqm=0 / deadzone=21,11 / fast_pskip=0 / chroma_qp_offset=-2 / threads=12 / lookahead_threads=1 / sliced_threads=0 / nr=0 / decimate=1 / interlaced=0 / bluray_compat=0 / constrained_intra=0 / fgo=0 / bframes=6 / b_pyramid=2 / b_adapt=2 / b_bias=0 / direct=3 / weightb=1 / open_gop=0 / weightp=2 / keyint=241 / keyint_min=23 / scenecut=40 / intra_refresh=0 / rc_lookahead=60 / rc=crf / mbtree=0 / crf=18.6000 / qcomp=0.70 / qpmin=0:0:0 / qpmax=69:69:69 / qpstep=4 / vbv_maxrate=50000 / vbv_bufsize=62500 / crf_max=0.0 / nal_hrd=none / filler=0 / ip_ratio=1.20 / pb_ratio=1.10 / aq=4:0.60 / aq-sensitivity=10.00 / aq-factor=1.00:1.00:1.00 / aq2=0 / aq3=0
Language : English
Default : Yes
Forced : No
Audio #1
ID : 2
Format : AC-3
Format/Info : Audio Coding 3
Mode extension : CM (complete main)
Format settings, Endianness : Big
Codec ID : A_AC3
Duration : 1h 42mn
Bit rate mode : Constant
Bit rate : 192 Kbps
Channel(s) : 2 channels
Channel positions : Front: L R
Sampling rate : 48.0 KHz
Bit depth : 16 bits
Compression mode : Lossy
Stream size : 140 MiB (1%)
Title : mvo, Кармен-Видео
Language : Russian
Default : Yes
Forced : No
Audio #2
ID : 3
Format : AC-3
Format/Info : Audio Coding 3
Mode extension : CM (complete main)
Format settings, Endianness : Big
Codec ID : A_AC3
Duration : 1h 42mn
Bit rate mode : Constant
Bit rate : 192 Kbps
Channel(s) : 2 channels
Channel positions : Front: L R
Sampling rate : 48.0 KHz
Bit depth : 16 bits
Compression mode : Lossy
Stream size : 140 MiB (1%)
Title : dvo
Language : Russian
Default : No
Forced : No
Audio #3
ID : 4
Format : AC-3
Format/Info : Audio Coding 3
Mode extension : CM (complete main)
Format settings, Endianness : Big
Codec ID : A_AC3
Duration : 1h 42mn
Bit rate mode : Constant
Bit rate : 224 Kbps
Channel(s) : 2 channels
Channel positions : Front: L R
Sampling rate : 48.0 KHz
Bit depth : 16 bits
Compression mode : Lossy
Stream size : 164 MiB (2%)
Title : avo, А.Гаврилов
Language : Russian
Default : No
Forced : No
Audio #4
ID : 5
Format : AC-3
Format/Info : Audio Coding 3
Mode extension : CM (complete main)
Format settings, Endianness : Big
Codec ID : A_AC3
Duration : 1h 42mn
Bit rate mode : Constant
Bit rate : 640 Kbps
Channel(s) : 6 channels
Channel positions : Front: L C R, Side: L R, LFE
Sampling rate : 48.0 KHz
Bit depth : 16 bits
Compression mode : Lossy
Stream size : 467 MiB (5%)
Language : Spanish
Default : No
Forced : No
Text #1
ID : 6
Format : UTF-8
Codec ID : S_TEXT/UTF8
Codec ID/Info : UTF-8 Plain Text
Title : Кармен
Language : Russian
Default : No
Forced : No
Text #2
ID : 7
Format : UTF-8
Codec ID : S_TEXT/UTF8
Codec ID/Info : UTF-8 Plain Text
Language : Russian
Default : No
Forced : No
Text #3
ID : 8
Format : UTF-8
Codec ID : S_TEXT/UTF8
Codec ID/Info : UTF-8 Plain Text
Language : English
Default : No
Forced : No
Menu
00:00:00.000 : :1. The Heart in the Window
00:08:26.339 : :2. Barajas Studios
00:17:38.182 : :3. "That's a Wrap!"
00:24:33.222 : :4. Don't Scream
00:32:16.935 : :5. "Canción del alma"
00:37:47.765 : :6. Marina's Doctor
00:45:03.993 : :7. The Square
00:53:36.922 : :8. Nothing to Lose
01:05:59.747 : :9. Playing House
01:14:33.511 : :10. "I Remember You"
01:19:50.869 : :11. The Line from Granadilla to Marina
01:28:13.497 : :12. End of the Line
01:37:00.023 : :13. "Resistiré"

Скриншоты

old rip vs Criterion



Показать сообщения:    

Текущее время: 06-Дек 11:15

Часовой пояс: UTC + 3


Вы не можете начинать темы
Вы не можете отвечать на сообщения
Вы не можете редактировать свои сообщения
Вы не можете удалять свои сообщения
Вы не можете голосовать в опросах
Вы не можете прикреплять файлы к сообщениям
Вы не можете скачивать файлы