Психо / Психоз / Psycho (Гас Ван Сент / Gus Van Sant) [1998, США, триллер, детектив, HDTV 1080i] MVO (1 канал) + DVO (Премьер Видео) + DVO + Original Eng


 

[Цитировать]

Психо / Психоз / Psycho
Страна: США
Жанр: триллер, детектив
Год выпуска: 1998
Продолжительность: 01:39:20
Перевод: Профессиональный (многоголосый закадровый) 1 канал
Перевод 2: Профессиональный (двухголосый закадровый) Премьер Видео
Перевод 3: Профессиональный (двухголосый закадровый)
Cубтитры: нет
Оригинальная аудиодорожка: английский
Режиссер: Гас Ван Сент / Gus Van Sant
В ролях: Винс Вон, Энн Хеч, Джулианна Мур, Вигго Мортенсен, Уильям Х. Мэйси, Роберт Форстер, Филип Бейкер Холл, Энн Хейни, Чад Эверетт, Рэнс Ховар
Описание: Похитив у босса крупную сумму денег, Мэрион Крэйн пускается в бега. Оказавшись на пустынном шоссе поздно ночью, она решает передохнуть в придорожном мотеле, который принадлежит странному человеку по имени Норман Бэйтс и его загадочной матери. Эта ночь становится для девушки последней. На поиски Мэрион отправляется ее сестра и частный детектив. Но на их пути встанет кровожадный психопат, страдающий раздвоением личности…
Доп. информация: Из видеоряда удалены послерекламные вставки с названием фильма и следующих передач. Финальные титры на канале со второй половины шли в ускоренном темпе, поэтому видеоряд чуть короче звука - звуковые дорожки добавлены полные. На HDTV картинка немного полнее, чем на DVD http://screenshotcomparison.com/comparison/87731 и WEB-DL http://screenshotcomparison.com/comparison/87732
Сэмпл: http://multi-up.com/996521
Тип релиза: HDTV 1080i
Контейнер: MKV
Видео: AVC, 1920x1080 (16/9), 25.000 fps, 12.1 Mbps (0.233 bit/pixel)
Аудио: AC-3, 48.0 KHz, 2 ch, 192 Kbps, CBR (Russian) - 1 канал
Аудио 2: AC-3, 48.0 KHz, 2 ch, 192 Kbps, CBR (Russian) - Премьер Видео
Аудио 3: AC-3, 48.0 KHz, 2 ch, 192 Kbps, CBR (Russian) - dvo
Аудио 4: AC-3, 48.0 KHz, 6 ch, 448 Kbps, CBR (English)

MediaInfo

Общее
Уникальный идентификатор : 248300725471112210819975406421845401044 (0xBACCFAF0FEABC27E82F68BAEB1E6DDD4)
Полное имя : K:\Психо.mkv
Формат : Matroska
Версия формата : Version 2
Размер файла : 9,27 Гбайт
Продолжительность : 1 ч. 39 м.
Общий поток : 13,3 Мбит/сек
Дата кодирования : UTC 2014-09-02 21:10:16
Программа кодирования : mkvmerge v7.1.0 ('Good Love') 32bit built on Jul 27 2014 12:59:18
Библиотека кодирования : libebml v1.3.0 + libmatroska v1.4.1
Видео
Идентификатор : 1
Формат : AVC
Формат/Информация : Advanced Video Codec
Профиль формата : Main@L4.0
Параметр CABAC формата : Да
Параметр ReFrames формата : 3 кадра
Идентификатор кодека : V_MPEG4/ISO/AVC
Битрейт : 12,1 Мбит/сек
Ширина : 1920 пикселей
Высота : 1080 пикселей
Соотношение сторон : 16:9
Режим частоты кадров : Переменный
Частота кадров в оригинале : 25,000 кадров/сек
Стандарт вещания : Component
Цветовое пространство : YUV
Субдискретизация насыщенности : 4:2:0
Битовая глубина : 8 бит
Тип развёртки : Чересстрочная
Порядок развёртки : Верхнее поле первое
Заголовок : Психо / Психоз / Psycho (1998)
Default : Да
Forced : Нет
Основные цвета : BT.709
Характеристики трансфера : BT.709
Коэффициенты матрицы : BT.709
Аудио #1
Идентификатор : 2
Формат : AC-3
Формат/Информация : Audio Coding 3
Расширение режима : CM (complete main)
Параметр Endianness формата : Big
Идентификатор кодека : A_AC3
Продолжительность : 1 ч. 39 м.
Вид битрейта : Постоянный
Битрейт : 192 Кбит/сек
Каналы : 2 канала
Расположение каналов : Front: L R
Частота : 48,0 КГц
Битовая глубина : 16 бит
Метод сжатия : С потерями
Задержка видео : -1 мс.
Размер потока : 136 Мбайт (1%)
Заголовок : Профессиональный (многоголосый закадровый) Первый канал
Язык : Russian
Default : Да
Forced : Нет
Аудио #2
Идентификатор : 3
Формат : AC-3
Формат/Информация : Audio Coding 3
Расширение режима : CM (complete main)
Параметр Endianness формата : Big
Идентификатор кодека : A_AC3
Продолжительность : 1 ч. 39 м.
Вид битрейта : Постоянный
Битрейт : 192 Кбит/сек
Каналы : 2 канала
Расположение каналов : Front: L R
Частота : 48,0 КГц
Битовая глубина : 16 бит
Метод сжатия : С потерями
Задержка видео : -1 мс.
Размер потока : 136 Мбайт (1%)
Заголовок : Профессиональный (двухголосый закадровый) Премьер Видео
Язык : Russian
Default : Нет
Forced : Нет
Аудио #3
Идентификатор : 4
Формат : AC-3
Формат/Информация : Audio Coding 3
Расширение режима : CM (complete main)
Параметр Endianness формата : Big
Идентификатор кодека : A_AC3
Продолжительность : 1 ч. 39 м.
Вид битрейта : Постоянный
Битрейт : 192 Кбит/сек
Каналы : 2 канала
Расположение каналов : Front: L R
Частота : 48,0 КГц
Битовая глубина : 16 бит
Метод сжатия : С потерями
Задержка видео : -1 мс.
Размер потока : 136 Мбайт (1%)
Заголовок : Профессиональный (двухголосый, закадровый)
Язык : Russian
Default : Нет
Forced : Нет
Аудио #4
Идентификатор : 5
Формат : AC-3
Формат/Информация : Audio Coding 3
Расширение режима : CM (complete main)
Параметр Endianness формата : Big
Идентификатор кодека : A_AC3
Продолжительность : 1 ч. 39 м.
Вид битрейта : Постоянный
Битрейт : 448 Кбит/сек
Каналы : 6 каналов
Расположение каналов : Front: L C R, Side: L R, LFE
Частота : 48,0 КГц
Битовая глубина : 16 бит
Метод сжатия : С потерями
Задержка видео : -1 мс.
Размер потока : 318 Мбайт (3%)
Язык : English
Default : Нет
Forced : Нет

Скриншоты




Показать сообщения:    

Текущее время: 07-Дек 23:19

Часовой пояс: UTC + 3


Вы не можете начинать темы
Вы не можете отвечать на сообщения
Вы не можете редактировать свои сообщения
Вы не можете удалять свои сообщения
Вы не можете голосовать в опросах
Вы не можете прикреплять файлы к сообщениям
Вы не можете скачивать файлы