Плывущие цветы / Piao lang qing chun / Drifting Flowers (Зеро Чоу / Zero Chou) [2008, Тайвань, драма, BDRip 720p] Sub (Rus, Eng) + Original Chi


 

[Цитировать]

Плывущие цветы / Drifting Flowers / Piao lang qing chun Страна: Тайвань
Жанр: драма
Год выпуска: 2008
Продолжительность: 01:36:02
Перевод: Субтитры
Cубтитры: английские, русские (madenta)
Оригинальная аудиодорожка: китайский
Режиссер: Зеро Чоу / Zero Chou
В ролях: Серена Фан, Лу И-Чин, Пай Чи-ин, Сэм Ванг, Chao Yi-lan
Описание:
Задумчивая драма от режиссера Зеро Чжоу о девушках, женственного и мужественного типа. Поделен на три главы, истории пересекаются и рассказывают о Диего, милом музыканте-буче, девочке Мэй и ее сестре Джинг, прекрасной слепой певице, и о женщине Лили с болезнью Альцгеймера. Потрясающий неторопливый фильм о поисках себя, о красоте и печали, которая так или иначе присутствует в нашей жизни. (c) madenta
Дополнительно:
Это лесби-кино (пишу на всякий случай, чтобы для кого-то это не стало неприятным сюрпризом)
Это третья часть цикла радужного кино от режиссера Зеро Чжоу:
2004. Splendid Float - цвет: желтый
2007. Spider Lilies - цвет: зеленый
2008. Drifting Flowers - цвет: красный
- Релиз группы: -Тип релиза: BDRip 720p (рип от JohnnyChung@LolHD)

Контейнер: MKV
Видео: AVC (x264), 1280x720 (16:9) at 23,976 fps, 6281 Кbps, 0.284 bpp
Аудио 1: AC3; 448 Kbps; CBR; 6 ch; 48 khz | Китайский |
Формат субтитров: softsub (SRT)
Скриншоты || x264 Info || MediaInfo || NotesNotes: Русские субтитры взяты, thx: madenta
-
JohnnyChung писал(а):Dirty line was fixed with BalanceBorders!

MediaInfo

Общее
Уникальный идентификатор                 : 251839801745562141674846732606290145940 (0xBD7694DF9C67240097EBBD1EE7123294)
Полное имя                               : Плывущие цветы.2008.RUSSUB.720p.BluRay.x264-LolHD.mkv
Формат                                   : Matroska
Версия формата                           : Version 4 / Version 2
Размер файла                             : 4,61 Гбайт
Продолжительность                        : 1 ч. 36 м.
Общий поток                              : 6865 Кбит/сек
Название фильма                          : Drifting Flowers [720p] [2008] RUS SUB
Дата кодирования                         : UTC 2014-08-01 00:35:51
Программа кодирования                    : mkvmerge v7.1.0 ('Good Love') 32bit built on Jul 27 2014 12:59:18
Библиотека кодирования                   : libebml v1.3.0 + libmatroska v1.4.1
Видео
Идентификатор                            : 1
Формат                                   : AVC
Формат/Информация                        : Advanced Video Codec
Профиль формата                          : High@L4.1
Параметр CABAC формата                   : Да
Параметр ReFrames формата                : 9 кадров
Идентификатор кодека                     : V_MPEG4/ISO/AVC
Продолжительность                        : 1 ч. 36 м.
Битрейт                                  : 6281 Кбит/сек
Ширина                                   : 1280 пикселей
Высота                                   : 720 пикселей
Соотношение сторон                       : 16:9
Режим частоты кадров                     : Постоянный
Частота кадров                           : 23,976 кадра/сек
Цветовое пространство                    : YUV
Субдискретизация насыщенности            : 4:2:0
Битовая глубина                          : 8 бит
Тип развёртки                            : Прогрессивная
Бит/(Пиксели*Кадры)                      : 0.284
Размер потока                            : 4,21 Гбайт (91%)
Заголовок                                : profile.php?mode=viewprofile&u=22488948 || RG Orient Extreme Films
Библиотека кодирования                   : x264 core 133 r2334 a3ac64b
Настройки программы                      : cabac=1 / ref=9 / deblock=1:-3:-3 / analyse=0x3:0x133 / me=umh / subme=10 / psy=1 / psy_rd=1.05:0.00 / mixed_ref=1 / me_range=24 / chroma_me=1 / trellis=2 / 8x8dct=1 / cqm=0 / deadzone=21,11 / fast_pskip=0 / chroma_qp_offset=-2 / threads=6 / lookahead_threads=1 / sliced_threads=0 / nr=0 / decimate=0 / interlaced=0 / bluray_compat=0 / constrained_intra=0 / bframes=12 / b_pyramid=2 / b_adapt=2 / b_bias=0 / direct=3 / weightb=1 / open_gop=0 / weightp=2 / keyint=250 / keyint_min=23 / scenecut=40 / intra_refresh=0 / rc=crf / mbtree=0 / crf=16.0 / qcomp=0.70 / qpmin=0 / qpmax=69 / qpstep=4 / ip_ratio=1.20 / pb_ratio=1.20 / aq=2:0.70
Язык                                     : Chinese
Default                                  : Да
Forced                                   : Нет
Аудио
Идентификатор                            : 2
Формат                                   : AC-3
Формат/Информация                        : Audio Coding 3
Расширение режима                        : CM (complete main)
Параметр Endianness формата              : Big
Идентификатор кодека                     : A_AC3
Продолжительность                        : 1 ч. 36 м.
Вид битрейта                             : Постоянный
Битрейт                                  : 448 Кбит/сек
Каналы                                   : 6 каналов
Расположение каналов                     : Front: L C R, Side: L R, LFE
Частота                                  : 48,0 КГц
Битовая глубина                          : 16 бит
Метод сжатия                             : С потерями
Размер потока                            : 308 Мбайт (7%)
Язык                                     : Chinese
Default                                  : Да
Forced                                   : Нет
Текст #1
Идентификатор                            : 3
Формат                                   : UTF-8
Идентификатор кодека                     : S_TEXT/UTF8
Идентификатор кодека/Информация          : UTF-8 Plain Text
Заголовок                                : [madenta]
Язык                                     : Russian
Default                                  : Да
Forced                                   : Нет
Текст #2
Идентификатор                            : 4
Формат                                   : UTF-8
Идентификатор кодека                     : S_TEXT/UTF8
Идентификатор кодека/Информация          : UTF-8 Plain Text
Язык                                     : English
Default                                  : Нет
Forced                                   : Нет
Меню
00:00:00.000                             : en:Chapter 1
00:38:48.993                             : en:Chapter 2
01:08:03.079                             : en:Chapter 3
x264 Infox264 [info]: frame I:789 Avg QP:15.26 size:108704
x264 [info]: frame P:27358 Avg QP:15.79 size: 59616
x264 [info]: frame B:110021 Avg QP:17.08 size: 26404
x264 [info]: consecutive B-frames: 2.1% 1.7% 3.7% 12.4% 11.9% 52.7% 6.8% 2.5% 2.3% 0.9% 0.8% 1.2% 0.9%

Source vs Encode

Source.....vs....LolHD




Показать сообщения:    

Текущее время: 10-Дек 15:42

Часовой пояс: UTC + 3


Вы не можете начинать темы
Вы не можете отвечать на сообщения
Вы не можете редактировать свои сообщения
Вы не можете удалять свои сообщения
Вы не можете голосовать в опросах
Вы не можете прикреплять файлы к сообщениям
Вы не можете скачивать файлы