Лифт на эшафот / Ascenseur pour l'échafaud / Elevator to the Gallows (Луи Малль / Louis Malle) [1958, Франция, фильм-нуар, триллер, драма, криминал, BDRip 1080p] AVO (Либергал) + MVO + DVO + Sub Rus, Eng + Original Fre


 

[Цитировать]

Лифт на эшафот / Ascenseur pour l'échafaud / Elevator to the Gallows
Страна: Франция
Студия: Nouvelles Éditions de Films
Жанр: фильм-нуар, триллер, драма, криминал
Год выпуска: 1958
Продолжительность: 01:31:21
Перевод 1: Профессиональный (многоголосый закадровый) - Артхаус
Перевод 2: Профессиональный (двухголосый закадровый) - Синема Престиж
Перевод 3: Авторский (одноголосый закадровый) ГРИГОРИЙ ЛИБЕРГАЛ
Cубтитры: русские, английские
Оригинальная аудиодорожка: французский
Режиссер: Луи Малль / Louis Malle
В ролях: Жанна Моро /Jeanne Moreau/, Морис Рене, Жорж Пужули /Georges Poujouly/, Йори Бертен, Жан Валь, Эльга Андерсен /Elga Andersen/, Сильвиана Айзенштайн, Мишелин Бона, Жизель Гранпре, Шарль Деннер /Charles Denner/, Иван Петрович, Феликс Мартан, Лино Вентура /Lino Ventura
Описание: Жена (только ради молодой красавицы Жанны Моро стоит посмотреть фильм) с любовником (Рене) планируют и осуществляют убийство мужа (его босса), но "идеального" преступления не получается. Он забывает на балконе веревку, по которой залез в окно офиса, возвращается за ней, но застревает в лифте. Молодой парень с девчонкой угоняют машину Рене и останавливаются в мотеле, дав его фамилию как муж и жена. Там парень из пистолета Рене убивает остановившегося рядом с ними немца, с которым они познакомились, устроив гонки на шоссе. Рене пытается выбраться из лифта, Моро ищет его по Парижу... Драматическое переплетение судеб, две трагедии... Первый недокументальный фильм режиссера Луи Маля и сейчас смотрится с напряжением, отличается тонким психологизмом и своеобразной романтичностью. Лино Вентура в роли инспектора полиции. Снят в черно-белом изображении. Сценарий Роже Нимье и Луи Маля по роману Ноэля Калефа. Диалоги Роже Нимье. Импровизации композитора Майлза Дэвиса. (Иванов М.)

Альтернативное описание:
Исторически, это – первый фильм «новой волны», поставленный 24-летним режиссёром (ситуация, совершенно уникальная для французского кино тех лет). Выйдя на экраны в 1958 году, фильм на один год опередил Четыреста ударов и на два года – На последнем дыхании. Вполне показательно, что самый формалистский и самый педантичный из режиссёров «новой волны» начал свой творческий путь упражнением в стиле, жанровым фильмом без каких-либо элементов автобиографии. Фильм, не бегущий от преемственных связей, близок к Вадиму по выбору натуры и стремлению зацепить как можно больше примет современности (в этой связи упомянем музыкальное сопровождение: импровизации на трубе Майлза Дэвиса), а также – к Астрюку, по ледяной абстракции стиля, призванной придать повествованию трагические возвышенность и благородство. В этом содержится принципиальное расхождение с кинематографом прошлых лет: тяготеющий скорее к богатству формы, чем к богатству содержания, фильм стремится избежать банальностей, реалистичных или псевдореалистичных тусклых пейзажей традиционного французского детектива. Волей режиссёра, а также при помощи операторской работы, музыки и моментов тишины, он пытается создать целую независимую вселенную. В этом отношении фильм, в своей холодной виртуозности, почти не устарел. В своём дебюте Луи Малль осторожно намечает первые вехи своей личной тематики. Она опирается на два главных мотива: искушение преступить закон и пасть на дно (которое особенно читается в более молодых персонажах) и, с другой стороны, внутренний разлад в душе героя, вызванный этим самым падением; разлад, который может выражаться другими средствами в более поздних фильмах. Этот разлад, который также можно назвать разложением, режиссёр рассматривает не с точки зрения моралиста, а, скорее, с точки зрения энтомолога. Однако он сам настолько захвачен происходящим, что иногда поневоле проникается сочувствием к своим героям.
--------------------------------------------------
Оператор: Анри Декэй (Henri Decaë)
Сценарист: Роже Нимье, Луи Маль /Louis Malle/
Продюсер: Жан Тюилье /Jean Thuillier/
Монтажер: Леонид Азар (Léonide Azar)
Художник: Жан Мандаро /Jean Mandaroux/
Композитор: Майлз Дэвис /Miles Davis/
--------------------------------------------------
КИНОПОИСК. RU
РЕЙТИНГ ФИЛЬМА: 8.282 оценки: 897
8,0/10 from 10 835 users
--------------------------------------------------
Доп. информация: Видеоряд >>> Elevator.To.The.Gallows.1958.1080p.BluRay.x264-FiDELiO
--------------------------------------------------
СЭМПЛ
--------------------------------------------------
Тип релиза: BDRip 1080p
Формат видео: MKV
Видео: H.264; 1776x1080; 23.976 fps; ~ 11.4 Мbps; 0.247 Bits/Pixel
Аудио 1: Russian - 48 kHz, AC3 Dolby Digital, 2/0 (L,R) 2ch, ~192 kbps - MVO - (Артхаус)
Аудио 2: Russian - 48 kHz, AC3 Dolby Digital, 1/0 (Front: C) 1ch, ~192 kbps - DVO- Синема Престиж
Аудио 3: Russian - 48 kHz, AC3 Dolby Digital, 2/0 (L,R) 2ch, ~192 kbps - Григорий Либергал
Аудио 4: French - 48 kHz, AC3 Dolby Digital, 2/0 (L,R) 2ch, ~ 640 kbps - Original
Формат субтитров: Все UTF-8

MediaInfo

General
Complete name : F:\EXCLUZIVE=19\ЛИФТ НА ЭШАФОТ=ELEVATOR TO THE GALLOWS.1957\ELEVATOR TO THE GALLOWS.1958\Ascenseur.Pour.L.Echafaud.1958.FRENCH.1080p.BluRay.mkv
Format : Matroska
File size : 8.02 GiB
Duration : 1h 31mn
Overall bit rate : 12.6 Mbps
Encoded date : UTC 2014-08-28 17:01:57
Writing application : mkvmerge v3.3.0 ('Language') built on Mar 24 2010 14:59:24
Writing library : libebml v0.8.0 + libmatroska v0.9.0
Video
ID : 1
Format : AVC
Format/Info : Advanced Video Codec
Format profile : High@L4.1
Format settings, CABAC : Yes
Format settings, ReFrames : 4 frames
Muxing mode : Container profile=Unknown@4.1
Codec ID : V_MPEG4/ISO/AVC
Duration : 1h 31mn
Bit rate : 11.4 Mbps
Width : 1 776 pixels
Height : 1 080 pixels
Display aspect ratio : 1.644
Frame rate mode : Variable
Frame rate : 23.976 fps
Color space : YUV
Chroma subsampling : 4:2:0
Bit depth : 8 bits
Scan type : Progressive
Bits/(Pixel*Frame) : 0.247
Stream size : 7.09 GiB (88%)
Title : Ascenseur.Pour.L.Echafaud.1958
Writing library : x264 core 130 r2274 c832fe9
Encoding settings : cabac=1 / ref=4 / deblock=1:0:0 / analyse=0x3:0x133 / me=umh / subme=10 / psy=1 / psy_rd=1.00:0.00 / mixed_ref=1 / me_range=24 / chroma_me=1 / trellis=2 / 8x8dct=1 / cqm=0 / deadzone=21,11 / fast_pskip=1 / chroma_qp_offset=-2 / threads=12 / lookahead_threads=2 / sliced_threads=0 / nr=0 / decimate=1 / interlaced=0 / bluray_compat=0 / constrained_intra=0 / bframes=8 / b_pyramid=2 / b_adapt=2 / b_bias=0 / direct=3 / weightb=1 / open_gop=0 / weightp=2 / keyint=250 / keyint_min=23 / scenecut=40 / intra_refresh=0 / rc_lookahead=60 / rc=2pass / mbtree=1 / bitrate=11353 / ratetol=1.0 / qcomp=0.60 / qpmin=0 / qpmax=69 / qpstep=4 / cplxblur=20.0 / qblur=0.5 / ip_ratio=1.40 / aq=1:1.00
Language : French
Audio #1
ID : 2
Format : AC-3
Format/Info : Audio Coding 3
Mode extension : CM (complete main)
Codec ID : A_AC3
Duration : 1h 31mn
Bit rate mode : Constant
Bit rate : 192 Kbps
Channel(s) : 2 channels
Channel positions : Front: L R
Sampling rate : 48.0 KHz
Video delay : -84ms
Stream size : 125 MiB (2%)
Title : MVO-Артхаус @ AC3 2ch. 192 kbps
Language : Russian
Audio #2
ID : 3
Format : AC-3
Format/Info : Audio Coding 3
Mode extension : CM (complete main)
Codec ID : A_AC3
Duration : 1h 31mn
Bit rate mode : Constant
Bit rate : 192 Kbps
Channel(s) : 1 channel
Channel positions : Front: C
Sampling rate : 48.0 KHz
Video delay : -84ms
Stream size : 125 MiB (2%)
Title : DVO- Синема Престиж @ AC3 1ch. 192 kbps
Language : Russian
Audio #3
ID : 4
Format : AC-3
Format/Info : Audio Coding 3
Mode extension : CM (complete main)
Codec ID : A_AC3
Duration : 1h 31mn
Bit rate mode : Constant
Bit rate : 192 Kbps
Channel(s) : 2 channels
Channel positions : Front: L R
Sampling rate : 48.0 KHz
Video delay : -84ms
Stream size : 125 MiB (2%)
Title : AVO Либергал @ AC3 2ch. 192 kbps
Language : Russian
Audio #4
ID : 5
Format : AC-3
Format/Info : Audio Coding 3
Mode extension : CM (complete main)
Codec ID : A_AC3
Duration : 1h 31mn
Bit rate mode : Constant
Bit rate : 640 Kbps
Channel(s) : 2 channels
Channel positions : Front: L R
Sampling rate : 48.0 KHz
Video delay : -84ms
Stream size : 418 MiB (5%)
Title : Original @ AC3 2ch. 640 kbps
Language : French
Text #1
ID : 6
Format : UTF-8
Codec ID : S_TEXT/UTF8
Codec ID/Info : UTF-8 Plain Text
Title : aptxayc * ( UTF-8)
Language : Russian
Text #2
ID : 7
Format : UTF-8
Codec ID : S_TEXT/UTF8
Codec ID/Info : UTF-8 Plain Text
Title : cinema * ( UTF-8)
Language : Russian
Text #3
ID : 8
Format : UTF-8
Codec ID : S_TEXT/UTF8
Codec ID/Info : UTF-8 Plain Text
Title : * ( UTF-8)
Language : English
Menu
00:00:00.000 : en:00:00:00.000
00:03:10.106 : en:00:03:10.106
00:13:32.269 : en:00:13:32.269
00:19:30.002 : en:00:19:30.002
00:24:48.528 : en:00:24:48.528
00:28:30.583 : en:00:28:30.583
00:33:59.120 : en:00:33:59.120
00:39:16.562 : en:00:39:16.562
00:45:35.858 : en:00:45:35.858
00:48:36.330 : en:00:48:36.330
00:56:55.120 : en:00:56:55.120
01:03:10.620 : en:01:03:10.620
01:07:12.027 : en:01:07:12.027
01:14:10.320 : en:01:14:10.320
01:19:19.463 : en:01:19:19.463
01:25:58.695 : en:01:25:58.695
01:31:19.098 : en:01:31:19.098
Скриншоты">

Скриншот c названием фильма Скриншоты


, ,
, ,
, ,



Показать сообщения:    

Текущее время: 09-Дек 18:31

Часовой пояс: UTC + 3


Вы не можете начинать темы
Вы не можете отвечать на сообщения
Вы не можете редактировать свои сообщения
Вы не можете удалять свои сообщения
Вы не можете голосовать в опросах
Вы не можете прикреплять файлы к сообщениям
Вы не можете скачивать файлы