Внимание, обход! / Pozor, vizita (Карел Кахиня / Karel Kachyňa) [1981, Чехословакия, драма, комедия, HDTVRip 720p] + Sub Rus + Original Cze


 

[Цитировать]

Внимание, обход! / Pozor, vizita
Страна: Чехословакия
Жанр: драма, комедия
Год выпуска: 1981
Продолжительность: 01:24:05
Перевод: Субтитры
Cубтитры: русские
Оригинальная аудиодорожка: чешский
Режиссер: Карел Кахиня / Karel Kachyňa
В ролях: Рудольф Грушинский, Людовит Грешшо, Либуше Швормова, Блажена Голишова, Йозеф Сомр, Борживой Навратил и др.
Описание: Действие разворачивается в 1960 году в инфекционном отделении одной больницы, в которую положен как разносчик бацилл брюшного тифа старик Препсл, бродяга без дома и семьи. Поначалу он совершенно не желает свыкнуться со своей ситуацией и жить изолированно, несколько рах пытается убежать. Но со временем он заводит знакомства не только с персоналом больницы, но и с пациентами, своим соседом по палате Бартунеком и девушкой из детского дома Манкой. Постепенно он смиряется со своей судьбой и находит новый смысл жизни.
Доп. информация:


Тип релиза: HDTVRip 720p (рип от DON) | sample
Контейнер: MKV
Видео: H.264/AVC, 988x720, 1.37:1, 25.00fps, 8462 Kbps
Аудио: Czech, MP2, 2.0, 48 kHz, 192 Kbps
Формат субтитров: softsub (SRT)

MI

General
Unique ID                                : 172003265677523647410487562637766570981 (0x81669FBDD03F2BE0B35BF856355C33E5)
Complete name                            : Pozor.vizita!.1981.720p.HDTV.x264-DON.mkv
Format                                   : Matroska
Format version                           : Version 4 / Version 2
File size                                : 4.97 GiB
Duration                                 : 1h 24mn
Overall bit rate                         : 8 459 Kbps
Movie name                               : Pozor, vizita! (1981)
Encoded date                             : UTC 2014-09-01 07:35:09
Writing application                      : mkvmerge v7.0.0 ('Where We Going') 32bit built on Jun  9 2014 15:08:34
Writing library                          : libebml v1.3.0 + libmatroska v1.4.1
DURATION                                 : 01:23:47.031000000
NUMBER_OF_FRAMES                         : 1251
NUMBER_OF_BYTES                          : 78240
_STATISTICS_WRITING_APP                  : mkvmerge v7.0.0 ('Where We Going') 32bit built on Jun  9 2014 15:08:34
_STATISTICS_WRITING_DATE_UTC             : 2014-09-01 07:35:09
_STATISTICS_TAGS                         : BPS DURATION NUMBER_OF_FRAMES NUMBER_OF_BYTES
Video
ID                                       : 1
Format                                   : AVC
Format/Info                              : Advanced Video Codec
Format profile                           : High@L4.1
Format settings, CABAC                   : Yes
Format settings, ReFrames                : 11 frames
Codec ID                                 : V_MPEG4/ISO/AVC
Duration                                 : 1h 24mn
Bit rate                                 : 8 098 Kbps
Width                                    : 988 pixels
Height                                   : 720 pixels
Display aspect ratio                     : 1.372
Frame rate mode                          : Constant
Frame rate                               : 25.000 fps
Color space                              : YUV
Chroma subsampling                       : 4:2:0
Bit depth                                : 8 bits
Scan type                                : Progressive
Bits/(Pixel*Frame)                       : 0.455
Stream size                              : 4.76 GiB (96%)
Writing library                          : x264 core 142 r2431+42 c69a006 tMod [8-bit@all X86_64]
Encoding settings                        : cabac=1 / ref=11 / deblock=1:-3:-3 / analyse=0x3:0x133 / me=tesa / subme=10 / psy=1 / fade_compensate=0.00 / psy_rd=1.05:0.00 / mixed_ref=1 / me_range=24 / chroma_me=1 / trellis=2 / 8x8dct=1 / cqm=0 / deadzone=21,11 / fast_pskip=0 / chroma_qp_offset=-2 / threads=12 / lookahead_threads=2 / sliced_threads=0 / nr=0 / decimate=0 / interlaced=0 / bluray_compat=0 / constrained_intra=0 / fgo=0 / bframes=8 / b_pyramid=2 / b_adapt=2 / b_bias=0 / direct=3 / weightb=1 / open_gop=0 / weightp=2 / keyint=250 / keyint_min=25 / scenecut=40 / intra_refresh=0 / rc_lookahead=60 / rc=crf / mbtree=0 / crf=16.5000 / qcomp=0.65 / qpmin=0:0:0 / qpmax=69:69:69 / qpstep=4 / vbv_maxrate=62500 / vbv_bufsize=78125 / crf_max=0.0 / nal_hrd=none / filler=0 / ip_ratio=1.30 / pb_ratio=1.20 / aq=4:0.70 / aq-sensitivity=10.00 / aq-factor=1.00:1.00:1.00 / aq2=0 / aq3=0
Language                                 : Czech
Default                                  : Yes
Forced                                   : No
Audio
ID                                       : 2
Format                                   : MPEG Audio
Format version                           : Version 1
Format profile                           : Layer 2
Codec ID                                 : A_MPEG/L2
Codec ID/Hint                            : MP2
Duration                                 : 1h 24mn
Bit rate mode                            : Constant
Bit rate                                 : 192 Kbps
Channel(s)                               : 2 channels
Sampling rate                            : 48.0 KHz
Compression mode                         : Lossy
Stream size                              : 115 MiB (2%)
Language                                 : Czech
Default                                  : Yes
Forced                                   : No
Text #1
ID                                       : 3
Format                                   : UTF-8
Codec ID                                 : S_TEXT/UTF8
Codec ID/Info                            : UTF-8 Plain Text
Title                                    : Leierkastenmann
Language                                 : Russian
Default                                  : Yes
Forced                                   : No
Text #2
ID                                       : 4
Format                                   : UTF-8
Codec ID                                 : S_TEXT/UTF8
Codec ID/Info                            : UTF-8 Plain Text
Language                                 : Polish
Default                                  : No
Forced                                   : No

Скриншоты




Показать сообщения:    

Текущее время: 09-Дек 03:07

Часовой пояс: UTC + 3


Вы не можете начинать темы
Вы не можете отвечать на сообщения
Вы не можете редактировать свои сообщения
Вы не можете удалять свои сообщения
Вы не можете голосовать в опросах
Вы не можете прикреплять файлы к сообщениям
Вы не можете скачивать файлы