Конец старых времен / Konec starych casu (Иржи Менцель /Jiri Menzel) [1989, Чехословакия, лирическая трагикомедия, HDTVRip 720p] VO (Ирина Гусева) + Original Cze


 

[Цитировать]

Конец старых времен / Konec starých časů
Страна: Чехословакия
Жанр: лирическая трагикомедия
Год выпуска: 1989
Продолжительность: 01:33:06
Перевод: Одноголосый закадровый (Ирина Гусева)
Cубтитры: нет
Оригинальная аудиодорожка: чешский
Режиссер: Иржи Менцель /Jiri Menzel
В ролях: Йозеф Абргам, Мариан Лабуда, Яромир Ганзлик, Рудольф Грушинский, Ян Гартль, Ян Грушинский, Иржи Адамира, Йозеф Шомр, Алице Дворакова
Описание: Это второе обращение И.Менцеля к прозе В.Ванчуры (после “Капризного лета”). Обаятельный ретро-фарс, происходящий между двумя мировыми войнами в старинном чешском поместье. Неотесанный, но богатый бизнесмен арендует его вместе со всей семьей, прочими домочадцами (среди них - гувернантка неопределенного пола и изысканная учительница французского) и местным “бомондом”. Это времена, когда еще гордятся знакомством с аристократами, вот и жители поместья ждут в гости графа - и он появляется, но это оказывается не граф, а князь (со слугой), и поселяется в поместье надолго. Князь с его веселым и бурным нравом, непрерывными шутовскими выходками, очаровывает всех: все женщины в поместье, одна за другой, заводят с ним романы, его обожают дети, с которыми он все время шалит, сам как ребенок (а ему 45), вскоре вся округа в от него без ума, приглашения в гости сыплются градом, и лишь мужчины относятся настороженно. Ревность, чувство соперничества постепенно разгораются - вплоть до дуэли на шпагах! Особенно ревнует молодой человек, который стремится иметь успех у женщин, но вездесущий князь всегда опережает его! Очень скоро выясняется, что никакой это не князь а самозванец, что он сам вовсе не скрывает, травя байки о своем происхождении (например, назвав своей мамой известное местное привидение, которому 300 лет). Когда его все же вынуждают уехать, дети рвутся сбежать с ним, и женщины горюют. Что с того, что он врун - очень скоро все сословные различия потеряют всякую ценность, ведь грядет конец старых времен. Фильм снят в характерной для Менцеля мягкой, игривой манере, окрашенной легкой грустью по таким милым старым временам.
Доп. информация:


Тип релиза: HDTVRip 720p (рип от DON) | sample
Контейнер: MKV
Видео: H.264/AVC, 986x720, 1.33:1, 25.00fps, 6613 Kbps
Аудио: Russian, DD 2.0, 48 kHz, 192 Kbps
Аудио 2: Czech, DD 2.0, 48 kHz, 448 Kbps

MI

General
Unique ID                                : 208747788644686557053656389421356574368 (0x9D0B5C9835C9C7EFA6AED7A28E1C66A0)
Complete name                            : Konec.starych.casu.1989.720p.HDTV.x264.rus.cze.mkv
Format                                   : Matroska
Format version                           : Version 4 / Version 2
File size                                : 4.81 GiB
Duration                                 : 1h 33mn
Overall bit rate                         : 7 400 Kbps
Movie name                               : Konec starých časů (1989)
Encoded date                             : UTC 2014-08-27 07:19:02
Writing application                      : mkvmerge v7.0.0 ('Where We Going') 32bit built on Jun  9 2014 15:08:34
Writing library                          : libebml v1.3.0 + libmatroska v1.4.1
DURATION                                 : 01:33:06.368000000
NUMBER_OF_FRAMES                         : 174574
NUMBER_OF_BYTES                          : 134072832
_STATISTICS_WRITING_APP                  : mkvmerge v7.0.0 ('Where We Going') 32bit built on Jun  9 2014 15:08:34
_STATISTICS_WRITING_DATE_UTC             : 2014-08-27 07:19:02
_STATISTICS_TAGS                         : BPS DURATION NUMBER_OF_FRAMES NUMBER_OF_BYTES
Video
ID                                       : 1
Format                                   : AVC
Format/Info                              : Advanced Video Codec
Format profile                           : High@L4.1
Format settings, CABAC                   : Yes
Format settings, ReFrames                : 11 frames
Codec ID                                 : V_MPEG4/ISO/AVC
Duration                                 : 1h 33mn
Bit rate                                 : 6 613 Kbps
Width                                    : 986 pixels
Height                                   : 720 pixels
Display aspect ratio                     : 4:3
Frame rate mode                          : Constant
Frame rate                               : 25.000 fps
Color space                              : YUV
Chroma subsampling                       : 4:2:0
Bit depth                                : 8 bits
Scan type                                : Progressive
Bits/(Pixel*Frame)                       : 0.373
Stream size                              : 4.30 GiB (89%)
Writing library                          : x264 core 142 r2431+42 c69a006 tMod [8-bit@all X86_64]
Encoding settings                        : cabac=1 / ref=11 / deblock=1:-3:-3 / analyse=0x3:0x133 / me=tesa / subme=10 / psy=1 / fade_compensate=0.00 / psy_rd=1.05:0.00 / mixed_ref=1 / me_range=24 / chroma_me=1 / trellis=2 / 8x8dct=1 / cqm=0 / deadzone=21,11 / fast_pskip=0 / chroma_qp_offset=-2 / threads=12 / lookahead_threads=2 / sliced_threads=0 / nr=0 / decimate=0 / interlaced=0 / bluray_compat=0 / constrained_intra=0 / fgo=0 / bframes=8 / b_pyramid=2 / b_adapt=2 / b_bias=0 / direct=3 / weightb=1 / open_gop=0 / weightp=2 / keyint=250 / keyint_min=25 / scenecut=40 / intra_refresh=0 / rc_lookahead=60 / rc=crf / mbtree=0 / crf=16.0000 / qcomp=0.65 / qpmin=0:0:0 / qpmax=69:69:69 / qpstep=4 / vbv_maxrate=62500 / vbv_bufsize=78125 / crf_max=0.0 / nal_hrd=none / filler=0 / ip_ratio=1.30 / pb_ratio=1.20 / aq=4:0.70 / aq-sensitivity=10.00 / aq-factor=1.00:1.00:1.00 / aq2=0 / aq3=0
Language                                 : Czech
Default                                  : Yes
Forced                                   : No
Audio #1
ID                                       : 2
Format                                   : AC-3
Format/Info                              : Audio Coding 3
Mode extension                           : CM (complete main)
Format settings, Endianness              : Big
Codec ID                                 : A_AC3
Duration                                 : 1h 33mn
Bit rate mode                            : Constant
Bit rate                                 : 192 Kbps
Channel(s)                               : 2 channels
Channel positions                        : Front: L R
Sampling rate                            : 48.0 KHz
Bit depth                                : 16 bits
Compression mode                         : Lossy
Stream size                              : 128 MiB (3%)
Title                                    : VO [Ирина Гусева]
Language                                 : Russian
Default                                  : Yes
Forced                                   : No
Audio #2
ID                                       : 3
Format                                   : AC-3
Format/Info                              : Audio Coding 3
Mode extension                           : CM (complete main)
Format settings, Endianness              : Big
Codec ID                                 : A_AC3
Duration                                 : 1h 33mn
Bit rate mode                            : Constant
Bit rate                                 : 448 Kbps
Channel(s)                               : 2 channels
Channel positions                        : Front: L R
Sampling rate                            : 48.0 KHz
Bit depth                                : 16 bits
Compression mode                         : Lossy
Stream size                              : 298 MiB (6%)
Language                                 : Czech
Default                                  : No
Forced                                   : No

Скриншоты




Показать сообщения:    

Текущее время: 05-Дек 05:23

Часовой пояс: UTC + 3


Вы не можете начинать темы
Вы не можете отвечать на сообщения
Вы не можете редактировать свои сообщения
Вы не можете удалять свои сообщения
Вы не можете голосовать в опросах
Вы не можете прикреплять файлы к сообщениям
Вы не можете скачивать файлы