Дипломная работа / Tesis (Алехандро Аменабар / Alejandro Amenábar) [1996, Испания, триллер, детектив, BDRip 720p] MVO + Sub Rus, Eng + Original Spa


 

[Цитировать]

Дипломная работа / Tesis
Страна: Испания
Жанр: триллер, детектив
Год выпуска: 1996
Продолжительность: 02:04:01
Перевод: Профессиональный (многоголосый закадровый) R5
Cубтитры: русские, английские, французские
Оригинальная аудиодорожка: испанский
Режиссер: Алехандро Аменабар / Alejandro Amenábar
В ролях: Ана Торрент, Феле Мартинес, Эдуардо Норьега, Ксабьер Элорриага, Мигель Пикасо, Ньевес Эрранс, Роса Кампильо, Франсиско Эрнандес, Роса Авила, Тереса Кастанедо
Описание: Знаете ли Вы, что такое «снафф-муви», или на жаргоне «мокрое видео»? Это документальные порнофильмы, в которых засняты настоящие насилие и убийство. О существовании таких кассет ходят легенды, за ними охотятся как почитатели извращенного видео, так и агенты спецслужб. Но кто видел настоящий снафф?
Студентка киношколы, пишущая диссертацию о насилии в кино, находит видеокассету со снаффом. Героиня понимает, что на кассете запечатлено жестокое убийство студентки той же школы, исчезнувшей несколько лет назад.
Начав собственное расследование, она узнает, что пропажи девушек в их институте — не такое уж редкое явление. Значит, вместе с ней учится маньяк и садист.
Возможно, это кто-то из ее хороших знакомых, возможно, это ее друг.
Кинопоиск|Imdb|Сэмпл
Тип релиза: BDRip 720p (CtrlHD)
Контейнер: MKV
Видео: MPEG4 Video (H264) 1280x692 (246:133) 24fps 7 226 Kbps
Аудио: Русский AC-3 6 ch 48.0 KHz 384 Kbps
Аудио 2: Испанский AC-3 6 ch 48.0 KHz 640 Kbps
Формат субтитров: softsub (SRT)

MediaInfo

General
Unique ID : 253384971405208482245228539234064120524 (0xBEA02B9E9803C1008F1C8273EB95BACC)
Complete name : D:\Tesis.1996.BDRip.720p.x264.mkv
Format : Matroska
Format version : Version 4 / Version 2
File size : 7.29 GiB
Duration : 2h 4mn
Overall bit rate : 8 417 Kbps
Encoded date : UTC 2014-08-26 11:08:34
Writing application : mkvmerge v6.9.1 ('Blue Panther') 64bit built on Apr 18 2014 18:23:38
Writing library : libebml v1.3.0 + libmatroska v1.4.1
DURATION : 02:03:36.625000000
NUMBER_OF_FRAMES : 1275
NUMBER_OF_BYTES : 38754
_STATISTICS_WRITING_APP : mkvmerge v7.1.0 ('Good Love') 64bit built on Jul 27 2014 13:06:55
_STATISTICS_WRITING_DATE_UTC : 2014-08-03 11:45:14
_STATISTICS_TAGS : BPS DURATION NUMBER_OF_FRAMES NUMBER_OF_BYTES
Video
ID : 1
Format : AVC
Format/Info : Advanced Video Codec
Format profile : High@L4.1
Format settings, CABAC : Yes
Format settings, ReFrames : 9 frames
Codec ID : V_MPEG4/ISO/AVC
Duration : 2h 4mn
Bit rate : 7 226 Kbps
Width : 1 280 pixels
Height : 692 pixels
Display aspect ratio : 1.85:1
Frame rate mode : Constant
Frame rate : 24.000 fps
Color space : YUV
Chroma subsampling : 4:2:0
Bit depth : 8 bits
Scan type : Progressive
Bits/(Pixel*Frame) : 0.340
Stream size : 6.26 GiB (86%)
Writing library : x264 core 142 r2453kMod ea0ca51
Encoding settings : cabac=1 / ref=9 / deblock=1:-3:-3 / analyse=0x3:0x133 / me=umh / subme=10 / psy=1 / fade_compensate=0.00 / psy_rd=1.10:0.00 / mixed_ref=1 / me_range=32 / chroma_me=1 / trellis=2 / 8x8dct=1 / cqm=0 / deadzone=21,11 / fast_pskip=0 / chroma_qp_offset=-2 / threads=6 / lookahead_threads=1 / sliced_threads=0 / nr=0 / decimate=0 / interlaced=0 / bluray_compat=0 / constrained_intra=0 / fgo=0 / bframes=11 / b_pyramid=2 / b_adapt=2 / b_bias=0 / direct=3 / weightb=1 / open_gop=0 / weightp=2 / keyint=250 / keyint_min=24 / scenecut=40 / intra_refresh=0 / rc_lookahead=60 / rc=crf / mbtree=0 / crf=18.0000 / qcomp=0.70 / qpmin=0 / qpmax=69 / qpstep=4 / vbv_maxrate=50000 / vbv_bufsize=62500 / crf_max=0.0 / nal_hrd=none / filler=0 / ip_ratio=1.30 / pb_ratio=1.20 / aq=1:0.80
Language : English
Default : Yes
Forced : No
DURATION : 02:04:01.334000000
NUMBER_OF_FRAMES : 178592
NUMBER_OF_BYTES : 6874825250
_STATISTICS_WRITING_APP : mkvmerge v7.1.0 ('Good Love') 64bit built on Jul 27 2014 13:06:55
_STATISTICS_WRITING_DATE_UTC : 2014-08-03 11:45:14
_STATISTICS_TAGS : BPS DURATION NUMBER_OF_FRAMES NUMBER_OF_BYTES
Audio #1
ID : 2
Format : AC-3
Format/Info : Audio Coding 3
Mode extension : CM (complete main)
Format settings, Endianness : Big
Codec ID : A_AC3
Duration : 2h 4mn
Bit rate mode : Constant
Bit rate : 384 Kbps
Channel count : 6 channels
Channel positions : Front: L C R, Side: L R, LFE
Sampling rate : 48.0 KHz
Bit depth : 16 bits
Compression mode : Lossy
Stream size : 341 MiB (5%)
Title : MVO
Language : Russian
Default : Yes
Forced : No
Audio #2
ID : 3
Format : AC-3
Format/Info : Audio Coding 3
Mode extension : CM (complete main)
Format settings, Endianness : Big
Codec ID : A_AC3
Duration : 2h 4mn
Bit rate mode : Constant
Bit rate : 640 Kbps
Channel count : 6 channels
Channel positions : Front: L C R, Side: L R, LFE
Sampling rate : 48.0 KHz
Bit depth : 16 bits
Compression mode : Lossy
Stream size : 568 MiB (8%)
Language : Spanish
Default : No
Forced : No
Text #1
ID : 4
Format : UTF-8
Codec ID : S_TEXT/UTF8
Codec ID/Info : UTF-8 Plain Text
Language : Russian
Default : No
Forced : No
Text #2
ID : 5
Format : UTF-8
Codec ID : S_TEXT/UTF8
Codec ID/Info : UTF-8 Plain Text
Language : English
Default : No
Forced : No
Text #3
ID : 6
Format : UTF-8
Codec ID : S_TEXT/UTF8
Codec ID/Info : UTF-8 Plain Text
Language : French
Default : No
Forced : No
Menu
00:00:00.000 : en:00:00:00.000
00:02:28.750 : en:00:02:28.750
00:05:16.667 : en:00:05:16.667
00:14:03.917 : en:00:14:03.917
00:16:59.083 : en:00:16:59.083
00:26:10.167 : en:00:26:10.167
00:29:59.750 : en:00:29:59.750
00:40:01.083 : en:00:40:01.083
00:44:21.542 : en:00:44:21.542
00:53:19.833 : en:00:53:19.833
00:58:10.875 : en:00:58:10.875
01:03:12.000 : en:01:03:12.000
01:11:58.167 : en:01:11:58.167
01:19:02.708 : en:01:19:02.708
01:28:35.500 : en:01:28:35.500
01:33:14.167 : en:01:33:14.167
01:36:55.083 : en:01:36:55.083
01:41:40.750 : en:01:41:40.750
01:50:58.125 : en:01:50:58.125
01:56:11.833 : en:01:56:11.833

Скриншоты




Показать сообщения:    

Текущее время: 05-Дек 17:27

Часовой пояс: UTC + 3


Вы не можете начинать темы
Вы не можете отвечать на сообщения
Вы не можете редактировать свои сообщения
Вы не можете удалять свои сообщения
Вы не можете голосовать в опросах
Вы не можете прикреплять файлы к сообщениям
Вы не можете скачивать файлы