Потоки любви / Love Streams (Джон Кассаветес / John Cassavetes) [1984, США, драма, BDRemux 1080p] [Criterion Collection] MVO + DVO + Sub Eng + Original Eng


 

[Цитировать]

Потоки любви / Love Streams
Страна: США
Жанр: драма
Год выпуска: 1984
Продолжительность: 02:21:16
Перевод: Профессиональный (двухголосый закадровый) НТВ+
Перевод: Профессиональный (многоголосый закадровый) ТВ Центр
Cубтитры: английские
Оригинальная аудиодорожка: английский-Режиссер: Джон Кассаветес / John Cassavetes
В ролях: Джина Роулэндс, Джон Кассаветис, Дайэнн Эбботт, Сеймур Кэссел, Маргарет Эбботт, Джейкоб Шо
Описание: Достаточно приличный писатель весьма неприличных романов Роберт живет в одном из тех особняков в Голливуде, что ассоциируются с успехом, достатком и мечтой. Впрочем, развратная и пошлая жизнь одними книгами, выходящими из под его пера в весьма больших количества, не ограничивается – те же самые проститутки и просто доступные женщины, вечеринки и бесконечные сигары, рука об руку идут с Робертом и по его реальной жизни. Его сестра Сара в еще более тяжелом эмоциональном состоянии – она прямо посередине развода, мужа своего она видеть уже не может, а ее дочь не может видеть ее, так как живет далеко. В результате нерастраченную любовь Сара тратит то на животных, а то и вовсе просит своего брата купить ей ребенка. Впрочем, в конце концов, у Роберта есть Сара, а у Сары – Роберт. Достаточно неплохо, многие и таким-то похвастаться не могут.
IMDb || КиноПоиск-Тип релиза: BDRemux 1080p [Love Streams 1984 1080p Blu-ray AVC LPCM 1.0 (thanks violator99)]
Контейнер: MKV
Видео: MPEG-4 AVC Video, 1920x1080 at 23.976 fps, 23499 kbps
Аудио#1: Russian: 48 kHz, AC3, 2.0 ch, 192 kbps |НТВ+
Аудио#2: Russian: 48 kHz, АС3, 2.0 ch, 160 kbps |ТВ Центр
Аудио#3: English: 48 kHz, LPCM, 1.0 ch, 1152 kbps
Аудио#4: English: 48 kHz, AC3, 1.0 ch, 192 kbps |Commentary by writer Michael Ventura
Формат субтитров: softsub (SRT)
Сэмпл

MediaInfo

General
Unique ID : 246048318224054070676090062475747158099 (0xB91B2EB0AD6754218402D17F8C506853)
Complete name : N:\Rutracker\Потоки любви\Love.Streams.1984.Criterion.BDRemux. rutracker.mkv
Format : Matroska
Format version : Version 2
File size : 24.8 GiB
Duration : 2h 21mn
Overall bit rate mode : Variable
Overall bit rate : 25.1 Mbps
Movie name : Release for RuTracker
Encoded date : UTC 2014-08-26 02:06:47
Writing application : mkvmerge v5.0.1 ('Es ist Sommer') built on Nov 6 2011 16:23:40
Writing library : libebml v1.2.2 + libmatroska v1.3.0
Video
ID : 1
Format : AVC
Format/Info : Advanced Video Codec
Format profile : High@L4.1
Format settings, CABAC : Yes
Format settings, ReFrames : 4 frames
Codec ID : V_MPEG4/ISO/AVC
Duration : 2h 21mn
Bit rate mode : Variable
Maximum bit rate : 37.0 Mbps
Width : 1 920 pixels
Height : 1 080 pixels
Display aspect ratio : 16:9
Frame rate mode : Constant
Frame rate : 23.976 fps
Color space : YUV
Chroma subsampling : 4:2:0
Bit depth : 8 bits
Scan type : Progressive
Title : Love.Streams.1984.Criterion.BDRemux. rutracker
Language : English
Default : Yes
Forced : No
Audio #1
ID : 2
Format : AC-3
Format/Info : Audio Coding 3
Mode extension : CM (complete main)
Format settings, Endianness : Big
Codec ID : A_AC3
Duration : 2h 21mn
Bit rate mode : Constant
Bit rate : 192 Kbps
Channel(s) : 2 channels
Channel positions : Front: L R
Sampling rate : 48.0 KHz
Bit depth : 16 bits
Compression mode : Lossy
Stream size : 194 MiB (1%)
Title : dvo, нтв+
Language : Russian
Default : Yes
Forced : No
Audio #2
ID : 3
Format : AC-3
Format/Info : Audio Coding 3
Mode extension : CM (complete main)
Format settings, Endianness : Big
Codec ID : A_AC3
Duration : 2h 21mn
Bit rate mode : Constant
Bit rate : 160 Kbps
Channel(s) : 2 channels
Channel positions : Front: L R
Sampling rate : 48.0 KHz
Bit depth : 16 bits
Compression mode : Lossy
Stream size : 162 MiB (1%)
Title : mvo, тв центр
Language : Russian
Default : No
Forced : No
Audio #3
ID : 4
Format : PCM
Codec ID : A_PCM/INT/LIT
Duration : 2h 21mn
Bit rate mode : Constant
Sampling rate : 48.0 KHz
Bit depth : 24 bits
Language : English
Default : No
Forced : No
Audio #4
ID : 5
Format : AC-3
Format/Info : Audio Coding 3
Mode extension : CM (complete main)
Format settings, Endianness : Big
Codec ID : A_AC3
Duration : 2h 21mn
Bit rate mode : Constant
Bit rate : 192 Kbps
Channel(s) : 1 channel
Channel positions : Front: C
Sampling rate : 48.0 KHz
Bit depth : 16 bits
Compression mode : Lossy
Stream size : 194 MiB (1%)
Title : commentary
Language : English
Default : No
Forced : No
Text
ID : 6
Format : UTF-8
Codec ID : S_TEXT/UTF8
Codec ID/Info : UTF-8 Plain Text
Language : English
Default : No
Forced : No
Menu
00:00:00.000 : :1
00:06:35.895 : :2
00:08:42.939 : :3
00:15:47.029 : :4
00:19:55.694 : :5
00:27:22.057 : :6
00:31:08.658 : :7
00:38:40.109 : :8
00:46:49.640 : :9
01:02:41.299 : :10
01:08:47.998 : :11
01:12:37.436 : :12
01:19:36.897 : :13
01:23:37.012 : :14
01:27:42.632 : :15
01:32:24.872 : :16
01:37:06.779 : :17
01:41:15.069 : :18
01:45:32.409 : :19
01:52:55.810 : :20
01:57:07.270 : :21
02:01:29.198 : :22
02:08:52.683 : :23
02:14:04.661 : :24

Скриншоты




Показать сообщения:    

Текущее время: 10-Дек 04:07

Часовой пояс: UTC + 3


Вы не можете начинать темы
Вы не можете отвечать на сообщения
Вы не можете редактировать свои сообщения
Вы не можете удалять свои сообщения
Вы не можете голосовать в опросах
Вы не можете прикреплять файлы к сообщениям
Вы не можете скачивать файлы