Операция "Оверлорд" / Повелитель / Overlord (Стюарт Купер / Stuart Cooper) [1975, Великобритания, драма, военный, BDRip 720p] VO (iDimo) + Sub Eng, Rus + Original Eng


 

[Цитировать]

Операция "Оверлорд" / Overlord
Страна: Великобритания
Жанр: драма, военный
Год выпуска: 1975
Продолжительность: 01:23:31-Перевод: Одноголосый закадровый (iDimo)
Cубтитры: английские, русские (badsteel)
Оригинальная аудиодорожка: английский-Режиссер: Стюарт Купер / Stuart Cooper-В ролях: Брайан Стирнер, Дэвид Хэррис, Николас Болл, Джули Нисэм, Сэм Сьюэлл, Джон Франклин-Роббинс, Стелла Тэннер, Хэри Шэклок, Дэвид Шойер, Йен Листон, Лорна Льюис, Стивен Риддл, Джек Ле Уайт, Марк Пенфолд, Микаэла Минелли, Эльза Минелли-Описание: Плавно переплетая архивную военную хронику и художественное повествование, Стюарт Купер рассказывает в этом фильме историю 21-летнего новобранца, прошедшего путь от призывного пункта до линии фронта в день высадки союзных войск у берегов Нормандии, с потрясающей достоверностью демонстрируя ужасающую и чуждую жизни природу войны. Впечатляющая работа Джона Элкотта, постоянного оператора Кубрика, делает картину в равной мере документом Второй Мировой и сновидческой силы размышлением о маленьком человеке, затерявшемся в огромной, непостижимой военной машине.-Доп. информация: За перевод спасибо badsteel, за озвучку - iDimo. Озвучка состоялась благодаря пользователям alinto, Arias, $Shorox, jasenka, edus67, eagle64, Lentyai80, сборы проводились на сайте videodemons. Наложение чистого голоса на оригинальную дорожку - Нордер.-Тип релиза: BDRip 720p
Контейнер: MKV-Сэмпл: Скачать-Видео: 1202x720 (1.669:1); 9000 Kbps; 23.976 fps; 0.434 bpp
Аудио 1: Russian; AC3; 48.0 KHz; 2ch; 192 Kbps
Аудио 2: English; AC3; 48.0 KHz; 1ch; 640 Kbps
Формат субтитров: softsub (SRT)

MediaInfo

Format : Matroska
Format version : Version 2
File size : 5.73 GiB
Duration : 1h 23mn
Overall bit rate : 9 823 Kbps
Encoded date : UTC 2014-08-22 13:54:31
Writing application : mkvmerge v5.0.1 ('Es ist Sommer') built on Oct 9 2011 11:55:43
Writing library : libebml v1.2.2 + libmatroska v1.3.0
DURATION : 01:23:31.072000000
NUMBER_OF_FRAMES : 156596
NUMBER_OF_BYTES : 400885760
_STATISTICS_WRITING_APP : mkvmerge v7.0.0 ('Where We Going') 64bit built on Jun 9 2014 15:16:27
_STATISTICS_WRITING_DATE_UTC : 2014-06-12 23:26:47
_STATISTICS_TAGS : BPS DURATION NUMBER_OF_FRAMES NUMBER_OF_BYTES
Video
ID : 1
Format : AVC
Format/Info : Advanced Video Codec
Format profile : High@L4.1
Format settings, CABAC : Yes
Format settings, ReFrames : 9 frames
Codec ID : V_MPEG4/ISO/AVC
Duration : 1h 23mn
Bit rate : 9 000 Kbps
Width : 1 202 pixels
Height : 720 pixels
Display aspect ratio : 1.669
Frame rate mode : Constant
Frame rate : 23.976 fps
Color space : YUV
Chroma subsampling : 4:2:0
Bit depth : 8 bits
Scan type : Progressive
Bits/(Pixel*Frame) : 0.434
Stream size : 5.13 GiB (90%)
Writing library : x264 core 142 r2431 ac76440
Encoding settings : cabac=1 / ref=9 / deblock=1:-3:-3 / analyse=0x3:0x113 / me=umh / subme=11 / psy=1 / psy_rd=1.00:0.05 / mixed_ref=1 / me_range=32 / chroma_me=1 / trellis=2 / 8x8dct=1 / cqm=0 / deadzone=21,11 / fast_pskip=0 / chroma_qp_offset=-2 / threads=8 / lookahead_threads=1 / sliced_threads=0 / nr=0 / decimate=1 / interlaced=0 / bluray_compat=0 / constrained_intra=0 / bframes=5 / b_pyramid=2 / b_adapt=2 / b_bias=0 / direct=3 / weightb=1 / open_gop=0 / weightp=2 / keyint=250 / keyint_min=23 / scenecut=40 / intra_refresh=0 / rc=2pass / mbtree=0 / bitrate=9000 / ratetol=1.0 / qcomp=0.70 / qpmin=0 / qpmax=69 / qpstep=4 / cplxblur=20.0 / qblur=0.5 / ip_ratio=1.40 / pb_ratio=1.30 / aq=2:0.90
Language : English
Default : Yes
Forced : No
DURATION : 01:23:31.044000000
NUMBER_OF_FRAMES : 120145
NUMBER_OF_BYTES : 5630574298
_STATISTICS_WRITING_APP : mkvmerge v7.0.0 ('Where We Going') 64bit built on Jun 9 2014 15:16:27
_STATISTICS_WRITING_DATE_UTC : 2014-06-12 23:26:47
_STATISTICS_TAGS : BPS DURATION NUMBER_OF_FRAMES NUMBER_OF_BYTES
Audio #1
ID : 2
Format : AC-3
Format/Info : Audio Coding 3
Mode extension : CM (complete main)
Format settings, Endianness : Big
Codec ID : A_AC3
Duration : 1h 23mn
Bit rate mode : Constant
Bit rate : 192 Kbps
Channel count : 2 channels
Channel positions : Front: L R
Sampling rate : 48.0 KHz
Bit depth : 16 bits
Compression mode : Lossy
Stream size : 115 MiB (2%)
Title : VO iDimo
Language : Russian
Default : Yes
Forced : No
Audio #2
ID : 3
Format : AC-3
Format/Info : Audio Coding 3
Mode extension : CM (complete main)
Format settings, Endianness : Big
Codec ID : A_AC3
Duration : 1h 23mn
Bit rate mode : Constant
Bit rate : 640 Kbps
Channel count : 1 channel
Channel positions : Front: C
Sampling rate : 48.0 KHz
Bit depth : 16 bits
Compression mode : Lossy
Stream size : 382 MiB (7%)
Language : English
Default : No
Forced : No
Text #1
ID : 4
Format : UTF-8
Codec ID : S_TEXT/UTF8
Codec ID/Info : UTF-8 Plain Text
Title : song
Language : Russian
Default : Yes
Forced : No
Text #2
ID : 5
Format : UTF-8
Codec ID : S_TEXT/UTF8
Codec ID/Info : UTF-8 Plain Text
Title : badsteel
Language : Russian
Default : No
Forced : No
Text #3
ID : 6
Format : UTF-8
Codec ID : S_TEXT/UTF8
Codec ID/Info : UTF-8 Plain Text
Language : English
Default : No
Forced : No

Скриншоты




Показать сообщения:    

Текущее время: 08-Дек 19:05

Часовой пояс: UTC + 3


Вы не можете начинать темы
Вы не можете отвечать на сообщения
Вы не можете редактировать свои сообщения
Вы не можете удалять свои сообщения
Вы не можете голосовать в опросах
Вы не можете прикреплять файлы к сообщениям
Вы не можете скачивать файлы