Трилогия Билла Дугласа: Мое детство, Моя родня, Мой путь домой / Bill Douglas Trilogy: My Childhood, My Ain Folk, My Way Home (Билл Дуглас / Bill Douglas) [1972, 1973, 1978, Великобритания, драма, BDRip 720p] AVO + Sub Eng + Original Eng


 

[Цитировать]

Трилогия Билла Дугласа: Мое детство, Моя родня, Мой путь домой / Bill Douglas Trilogy: My Childhood, My Ain Folk, My Way Home
Страна: Великобритания
Студия: British Film Institute (BFI)
Жанр: драма, биография
Год выпуска: 1972, 1973, 1978
Продолжительность: 00:46:25 + 00:55:10 + 01:11:38
Перевод: Авторский (одноголосый закадровый) Сергей Кузнецов
Cубтитры: английские (full, SDH)
Оригинальная аудиодорожка: английский
Режиссер: Билл Дуглас / Bill Douglas
В ролях: Мое детство 1972 - Стефен Арчибальд, Хьюи Ресторик, Джин Тейлор Смит, Карл Физелер, Бернард МакКенна, Пол Кермак, Хелена Глог, Энн Смит, Эйлин МакКаллум, Хелен Рэй
Моя родня 1973 - Стефен Арчибальд, Хьюи Ресторик, Джин Тейлор Смит, Бернард МакКенна, Мистер Манро, Пол Кермак, Хелена Глог, Джесси Комбе, Уильям Кэрролл,Энн МакЛеод
Мой путь домой 1978 - Стефен Арчибальд, Пол Кермак ,Джесси Комбе, Уильям Кэролл, Мораг МакНи, Леннокс Милн, Джеральд Джеймс, Эндрю, Джон Янг, Ян Споварт
Описание: Автобиографическая трилогия британского режиссёра Билла Дугласа (1934 - 1991) - воспоминания о несчастливом детстве и отрочестве в небольшом шахтёрском городке в послевоенной Шотландии.
Тип релиза: BDRip 720p - CtrlHD
Контейнер: MKV
Формат субтитров: softsub (SRT)
Мое детство - Кинопоиск - IMDb - Sample
Видео: MPEG4 AVC Video, H264, 4:3, 962x720, 24 fps, 8660 Kbps
Аудио: Russian (AC3, 2 ch, 192 kbps, 16 bits, 48.0 KHz) - C. Кузнецов
Аудио 2: English (FLAC, 2 ch, 315 kbps, 16 bits, 48.0 KHz) - оригинал
Моя родня - Кинопоиск - IMDb - Sample
Видео: MPEG4 AVC Video, H264, 4:3, 960x720, 24 fps, 7000 Kbps
Аудио: Russian (AC3, 2 ch, 192 kbps, 16 bits, 48.0 KHz) - C. Кузнецов
Аудио 2: English (FLAC, 2 ch, 265 kbps, 16 bits, 48.0 KHz) - оригинал
Мой путь домой - Кинопоиск - IMDb - Sample
Видео: MPEG4 AVC Video, H264, 4:3, 962x720, 24 fps, 7600 Kbps
Аудио: Russian (AC3, 2 ch, 192 kbps, 16 bits, 48.0 KHz) - C. Кузнецов
Аудио 2: English (FLAC, 2 ch, 296 kbps, 16 bits, 48.0 KHz) - оригинал

MediaInfoМоё детство

General
Unique ID : 226544333537890847982717933041569652315 (0xAA6EDA007031F67DAF4830157A3E5E5B)
Complete name : E:\1\Bill Douglas Trilogy 1972-1978 BDRip 720p-CtrlHD\My Childhood 1972 BDRip 720p-CtrlHD.mkv
Format : Matroska
Format version : Version 4 / Version 2
File size : 2.97 GiB
Duration : 46mn 25s
Overall bit rate mode : Variable
Overall bit rate : 9 164 Kbps
Encoded date : UTC 2014-08-22 05:57:36
Writing application : mkvmerge v6.1.0 ('Old Devil') built on Mar 2 2013 14:32:37
Writing library : libebml v1.3.0 + libmatroska v1.4.0
Video
ID : 1
Format : AVC
Format/Info : Advanced Video Codec
Format profile : High@L4.1
Format settings, CABAC : Yes
Format settings, ReFrames : 11 frames
Codec ID : V_MPEG4/ISO/AVC
Duration : 46mn 25s
Nominal bit rate : 8 660 Kbps
Width : 962 pixels
Height : 720 pixels
Display aspect ratio : 4:3
Frame rate mode : Constant
Frame rate : 24.000 fps
Color space : YUV
Chroma subsampling : 4:2:0
Bit depth : 8 bits
Scan type : Progressive
Bits/(Pixel*Frame) : 0.521
Writing library : x264 core 142 r2453kMod ea0ca51
Encoding settings : cabac=1 / ref=11 / deblock=1:-3:-3 / analyse=0x3:0x133 / me=umh / subme=10 / psy=1 / fade_compensate=0.00 / psy_rd=1.15:0.00 / mixed_ref=1 / me_range=32 / chroma_me=1 / trellis=2 / 8x8dct=1 / cqm=0 / deadzone=21,11 / fast_pskip=0 / chroma_qp_offset=-2 / threads=6 / lookahead_threads=1 / sliced_threads=0 / nr=0 / decimate=0 / interlaced=0 / bluray_compat=0 / constrained_intra=0 / fgo=0 / bframes=14 / b_pyramid=2 / b_adapt=2 / b_bias=0 / direct=3 / weightb=1 / open_gop=0 / weightp=2 / keyint=250 / keyint_min=24 / scenecut=40 / intra_refresh=0 / rc_lookahead=60 / rc=2pass / mbtree=0 / bitrate=8660 / ratetol=1.0 / qcomp=0.70 / qpmin=0 / qpmax=69 / qpstep=4 / cplxblur=20.0 / qblur=0.5 / vbv_maxrate=50000 / vbv_bufsize=62500 / nal_hrd=none / filler=0 / ip_ratio=1.20 / pb_ratio=1.10 / aq=1:0.50
Language : English
Default : Yes
Forced : No
Audio #1
ID : 2
Format : AC-3
Format/Info : Audio Coding 3
Mode extension : CM (complete main)
Format settings, Endianness : Big
Codec ID : A_AC3
Duration : 46mn 25s
Bit rate mode : Constant
Bit rate : 192 Kbps
Channel count : 2 channels
Channel positions : Front: L R
Sampling rate : 48.0 KHz
Bit depth : 16 bits
Compression mode : Lossy
Stream size : 63.8 MiB (2%)
Language : Russian
Default : Yes
Forced : No
Audio #2
ID : 3
Format : FLAC
Format/Info : Free Lossless Audio Codec
Codec ID : A_FLAC
Duration : 46mn 25s
Bit rate mode : Variable
Channel count : 2 channels
Sampling rate : 48.0 KHz
Bit depth : 16 bits
Writing library : libFLAC 20080709 (UTC 2008-07-09)
Language : English
Default : No
Forced : No
Text #1
ID : 4
Format : UTF-8
Codec ID : S_TEXT/UTF8
Codec ID/Info : UTF-8 Plain Text
Language : English
Default : No
Forced : No
Text #2
ID : 5
Format : UTF-8
Codec ID : S_TEXT/UTF8
Codec ID/Info : UTF-8 Plain Text
Title : SDH
Language : English
Default : No
Forced : No
Menu
00:00:00.000 : en:Chapter 1
00:07:43.542 : en:Chapter 2
00:15:31.333 : en:Chapter 3
00:26:00.958 : en:Chapter 4
00:32:42.333 : en:Chapter 5
00:40:51.583 : en:Chapter 6

Моя родня

General
Unique ID : 208060960017599199793444342408378102157 (0x9C8715542B90B4AFB1FF6C39A428B18D)
Complete name : E:\1\Bill Douglas Trilogy 1972-1978 BDRip 720p-CtrlHD\My Ain Folk 1973 BDRip 720p-CtrlHD.mkv
Format : Matroska
Format version : Version 4 / Version 2
File size : 2.87 GiB
Duration : 55mn 10s
Overall bit rate mode : Variable
Overall bit rate : 7 456 Kbps
Encoded date : UTC 2014-08-22 06:02:07
Writing application : mkvmerge v6.1.0 ('Old Devil') built on Mar 2 2013 14:32:37
Writing library : libebml v1.3.0 + libmatroska v1.4.0
Video
ID : 1
Format : AVC
Format/Info : Advanced Video Codec
Format profile : High@L4.1
Format settings, CABAC : Yes
Format settings, ReFrames : 12 frames
Codec ID : V_MPEG4/ISO/AVC
Duration : 55mn 10s
Nominal bit rate : 7 000 Kbps
Width : 960 pixels
Height : 720 pixels
Display aspect ratio : 4:3
Frame rate mode : Constant
Frame rate : 24.000 fps
Color space : YUV
Chroma subsampling : 4:2:0
Bit depth : 8 bits
Scan type : Progressive
Bits/(Pixel*Frame) : 0.422
Writing library : x264 core 142 r2453kMod ea0ca51
Encoding settings : cabac=1 / ref=12 / deblock=1:-3:-3 / analyse=0x3:0x133 / me=umh / subme=10 / psy=1 / fade_compensate=0.00 / psy_rd=1.05:0.00 / mixed_ref=1 / me_range=32 / chroma_me=1 / trellis=2 / 8x8dct=1 / cqm=0 / deadzone=21,11 / fast_pskip=0 / chroma_qp_offset=-2 / threads=6 / lookahead_threads=1 / sliced_threads=0 / nr=0 / decimate=0 / interlaced=0 / bluray_compat=0 / constrained_intra=0 / fgo=0 / bframes=13 / b_pyramid=2 / b_adapt=2 / b_bias=0 / direct=3 / weightb=1 / open_gop=0 / weightp=2 / keyint=250 / keyint_min=24 / scenecut=40 / intra_refresh=0 / rc_lookahead=60 / rc=2pass / mbtree=0 / bitrate=7000 / ratetol=1.0 / qcomp=0.60 / qpmin=0 / qpmax=69 / qpstep=4 / cplxblur=20.0 / qblur=0.5 / vbv_maxrate=50000 / vbv_bufsize=62500 / nal_hrd=none / filler=0 / ip_ratio=1.30 / pb_ratio=1.20 / aq=1:0.90
Language : English
Default : Yes
Forced : No
Audio #1
ID : 2
Format : AC-3
Format/Info : Audio Coding 3
Mode extension : CM (complete main)
Format settings, Endianness : Big
Codec ID : A_AC3
Duration : 55mn 10s
Bit rate mode : Constant
Bit rate : 192 Kbps
Channel count : 2 channels
Channel positions : Front: L R
Sampling rate : 48.0 KHz
Bit depth : 16 bits
Compression mode : Lossy
Stream size : 75.8 MiB (3%)
Language : Russian
Default : Yes
Forced : No
Audio #2
ID : 3
Format : FLAC
Format/Info : Free Lossless Audio Codec
Codec ID : A_FLAC
Duration : 55mn 10s
Bit rate mode : Variable
Channel count : 2 channels
Sampling rate : 48.0 KHz
Bit depth : 16 bits
Writing library : libFLAC 20080709 (UTC 2008-07-09)
Language : English
Default : No
Forced : No
Text #1
ID : 4
Format : UTF-8
Codec ID : S_TEXT/UTF8
Codec ID/Info : UTF-8 Plain Text
Language : English
Default : No
Forced : No
Text #2
ID : 5
Format : UTF-8
Codec ID : S_TEXT/UTF8
Codec ID/Info : UTF-8 Plain Text
Title : SDH
Language : English
Default : No
Forced : No
Menu
00:00:00.000 : en:Chapter 1
00:07:58.042 : en:Chapter 2
00:12:06.125 : en:Chapter 3
00:22:17.167 : en:Chapter 4
00:29:20.167 : en:Chapter 5
00:34:42.792 : en:Chapter 6
00:43:48.250 : en:Chapter 7
00:48:52.000 : en:Chapter 8
00:54:02.208 : en:Chapter 9

Мой путь домой

General
Unique ID : 211381387413221220532102048406460954765 (0x9F069309F2592EEBA8799C765B4FF88D)
Complete name : E:\1\Bill Douglas Trilogy 1972-1978 BDRip 720p-CtrlHD\My Way Home 1978 BDRip 720p-CtrlHD.mkv
Format : Matroska
Format version : Version 4 / Version 2
File size : 4.05 GiB
Duration : 1h 11mn
Overall bit rate mode : Variable
Overall bit rate : 8 089 Kbps
Encoded date : UTC 2014-08-22 06:05:19
Writing application : mkvmerge v6.1.0 ('Old Devil') built on Mar 2 2013 14:32:37
Writing library : libebml v1.3.0 + libmatroska v1.4.0
Video
ID : 1
Format : AVC
Format/Info : Advanced Video Codec
Format profile : High@L4.1
Format settings, CABAC : Yes
Format settings, ReFrames : 11 frames
Codec ID : V_MPEG4/ISO/AVC
Duration : 1h 11mn
Nominal bit rate : 7 600 Kbps
Width : 962 pixels
Height : 720 pixels
Display aspect ratio : 4:3
Frame rate mode : Constant
Frame rate : 24.000 fps
Color space : YUV
Chroma subsampling : 4:2:0
Bit depth : 8 bits
Scan type : Progressive
Bits/(Pixel*Frame) : 0.457
Writing library : x264 core 142 r2453kMod ea0ca51
Encoding settings : cabac=1 / ref=11 / deblock=1:-3:-3 / analyse=0x3:0x133 / me=umh / subme=10 / psy=1 / fade_compensate=0.00 / psy_rd=1.10:0.00 / mixed_ref=1 / me_range=32 / chroma_me=1 / trellis=2 / 8x8dct=1 / cqm=0 / deadzone=21,11 / fast_pskip=0 / chroma_qp_offset=-2 / threads=6 / lookahead_threads=1 / sliced_threads=0 / nr=0 / decimate=0 / interlaced=0 / bluray_compat=0 / constrained_intra=0 / fgo=0 / bframes=13 / b_pyramid=2 / b_adapt=2 / b_bias=0 / direct=3 / weightb=1 / open_gop=0 / weightp=2 / keyint=250 / keyint_min=24 / scenecut=40 / intra_refresh=0 / rc_lookahead=60 / rc=2pass / mbtree=0 / bitrate=7600 / ratetol=1.0 / qcomp=0.60 / qpmin=0 / qpmax=69 / qpstep=4 / cplxblur=20.0 / qblur=0.5 / vbv_maxrate=50000 / vbv_bufsize=62500 / nal_hrd=none / filler=0 / ip_ratio=1.30 / pb_ratio=1.20 / aq=1:0.70
Language : English
Default : Yes
Forced : No
Audio #1
ID : 2
Format : AC-3
Format/Info : Audio Coding 3
Mode extension : CM (complete main)
Format settings, Endianness : Big
Codec ID : A_AC3
Duration : 1h 11mn
Bit rate mode : Constant
Bit rate : 192 Kbps
Channel count : 2 channels
Channel positions : Front: L R
Sampling rate : 48.0 KHz
Bit depth : 16 bits
Compression mode : Lossy
Stream size : 98.4 MiB (2%)
Language : Russian
Default : Yes
Forced : No
Audio #2
ID : 3
Format : FLAC
Format/Info : Free Lossless Audio Codec
Codec ID : A_FLAC
Duration : 1h 11mn
Bit rate mode : Variable
Channel count : 2 channels
Sampling rate : 48.0 KHz
Bit depth : 16 bits
Writing library : libFLAC 20080709 (UTC 2008-07-09)
Language : English
Default : No
Forced : No
Text #1
ID : 4
Format : UTF-8
Codec ID : S_TEXT/UTF8
Codec ID/Info : UTF-8 Plain Text
Language : English
Default : No
Forced : No
Text #2
ID : 5
Format : UTF-8
Codec ID : S_TEXT/UTF8
Codec ID/Info : UTF-8 Plain Text
Title : SDH
Language : English
Default : No
Forced : No
Menu
00:00:00.000 : en:Chapter 1
00:08:11.000 : en:Chapter 2
00:17:41.750 : en:Chapter 3
00:24:34.458 : en:Chapter 4
00:29:19.417 : en:Chapter 5
00:37:35.542 : en:Chapter 6
00:43:31.583 : en:Chapter 7
00:50:43.708 : en:Chapter 8
00:56:09.250 : en:Chapter 9
01:03:58.792 : en:Chapter 10
01:07:52.208 : en:Chapter 11

Скриншоты по шесть к каждой части отдельной строкой






Показать сообщения:    

Текущее время: 05-Дек 15:34

Часовой пояс: UTC + 3


Вы не можете начинать темы
Вы не можете отвечать на сообщения
Вы не можете редактировать свои сообщения
Вы не можете удалять свои сообщения
Вы не можете голосовать в опросах
Вы не можете прикреплять файлы к сообщениям
Вы не можете скачивать файлы