Карьера Сюзанны / La carrière de Suzanne / Suzanne's Career (Эрик Ромер / Eric Rohmer) [1963 г., Франция, драма, BDRip 720p] AVO (Янкилевич) + Original Fre + Sub (Rus, Eng)


 

[Цитировать]

Карьера Сюзанны / La carrière de Suzanne / Suzanne's Career- Год выпуска: 1963
Страна: Франция
Жанр: драма
Продолжительность: 00:54:54
Перевод: Авторский (одноголосый закадровый) Роман Янкилевич
Оригинальная аудиодорожка: Французская
Cубтитры: Русские (Akuli), английские-Режиссер: Эрик Ромер / Eric Rohmer
В ролях: Катрин Си, Филипп Безен, Кристиан Шарьер, Диана Уилкинсон, Патрик Бошо-Описание:
Шесть «Моральных историй» являются вариацией одного и того же сюжета. У героя уже есть прочный тыл в лице женщины, в которой он уверен как в своем «типе», выбранном рационально и из благих побуждений, а не под действием страсти. С этой удобной и защищенной позиции герой осмеливается приударить за другой, более опасной и желанной женщиной. Фильмы построены на тонком сопоставлении речи персонажа и предельно объективным изображения. Изображение нейтрально, в нем почти нет наводящих подсказок. Речь в данном случае, действительно, уместно назвать «дискурсом», в силу того, что она очень литературно, составлена по всем правилам риторики, произносится с чувством и с расстановкой. Эта самонадеянную речь звучит из места, из которого герой себе очень нравится. из точки, из которой он видит идеальный образ себя. Изображение в своей неакцентированности не разоблачает этот образ в лоб, скорее снижает, не разрушая, вставляет шпильки, незаметно придерживает за рукав, когда герой драпируется в широкие складки самодовольного пафоса. Ромеровские персонажи не в коей мере не карикатурны. Шарж и гротеск противоречили бы очевидным классицистическим установкам Ромера.- | IMDb | Сэмпл |-Качество: BDRip 720p (mfcorrea)
Контейнер: MKV
Видео: x264, 986x720 (1.37:1), 24 fps, 6500 kbps
Аудио 1: Русский AC3 1.0, 48 kHz, 192 kbps — Янкилевич
Аудио 2: Французский DTS 1.0, 48 kHz, 768 kbps, 16-bit
Формат субтитров: softsub (SRT)

Скриншоты


MI

General
Unique ID : 174728410377574213239301808465724740596 (0x837377BFA70AA2A3880AC589FD3693F4)
Complete name : La.Carriere.de.Suzanne.1963.720p.BluRay.AVC-mfcorrea.mkv
Format : Matroska
Format version : Version 2
File size : 2.86 GiB
Duration : 54mn 53s
Overall bit rate : 7 464 Kbps
Movie name : La carrière de Suzanne / Карьера Сюзанны (1963)
Encoded date : UTC 2014-08-20 14:54:22
Writing application : mkvmerge v7.0.0 ('Where We Going') 64bit built on Jun 9 2014 15:16:27
Writing library : libebml v1.3.0 + libmatroska v1.4.1
Attachment : Yes
Video
ID : 1
Format : AVC
Format/Info : Advanced Video Codec
Format profile : High@L4.1
Format settings, CABAC : Yes
Format settings, ReFrames : 6 frames
Codec ID : V_MPEG4/ISO/AVC
Duration : 54mn 53s
Bit rate : 6 500 Kbps
Width : 986 pixels
Height : 720 pixels
Display aspect ratio : 4:3
Frame rate mode : Constant
Frame rate : 24.000 fps
Color space : YUV
Chroma subsampling : 4:2:0
Bit depth : 8 bits
Scan type : Progressive
Bits/(Pixel*Frame) : 0.381
Stream size : 2.44 GiB (85%)
Title : La.Carriere.de.Suzanne.1963.720p.BluRay.AVC-mfcorrea
Writing library : x264 core 130 r2273 b3065e6
Encoding settings : cabac=1 / ref=6 / deblock=1:-3:-3 / analyse=0x3:0x133 / me=umh / subme=9 / psy=1 / psy_rd=1.00:0.15 / mixed_ref=1 / me_range=24 / chroma_me=1 / trellis=2 / 8x8dct=1 / cqm=0 / deadzone=21,11 / fast_pskip=1 / chroma_qp_offset=-3 / threads=18 / lookahead_threads=2 / sliced_threads=0 / nr=0 / decimate=1 / interlaced=0 / bluray_compat=0 / constrained_intra=0 / bframes=5 / b_pyramid=2 / b_adapt=2 / b_bias=0 / direct=3 / weightb=1 / open_gop=0 / weightp=2 / keyint=240 / keyint_min=24 / scenecut=40 / intra_refresh=0 / rc_lookahead=60 / rc=2pass / mbtree=1 / bitrate=6500 / ratetol=1.0 / qcomp=0.60 / qpmin=0 / qpmax=69 / qpstep=4 / cplxblur=20.0 / qblur=0.5 / vbv_maxrate=62500 / vbv_bufsize=78125 / nal_hrd=none / ip_ratio=1.40 / aq=1:1.00
Language : English
Default : Yes
Forced : No
Color primaries : BT.709
Transfer characteristics : BT.709
Matrix coefficients : BT.709
Audio #1
ID : 2
Format : AC-3
Format/Info : Audio Coding 3
Mode extension : CM (complete main)
Format settings, Endianness : Big
Codec ID : A_AC3
Duration : 54mn 53s
Bit rate mode : Constant
Bit rate : 192 Kbps
Channel(s) : 1 channel
Channel positions : Front: C
Sampling rate : 48.0 KHz
Bit depth : 16 bits
Compression mode : Lossy
Stream size : 75.4 MiB (3%)
Title : AVO – Р. Янкилевич
Language : Russian
Default : Yes
Forced : No
Audio #2
ID : 3
Format : DTS
Format/Info : Digital Theater Systems
Mode : 16
Format settings, Endianness : Big
Codec ID : A_DTS
Duration : 54mn 53s
Bit rate mode : Constant
Bit rate : 768 Kbps
Channel(s) : 1 channel
Channel positions : Front: C
Sampling rate : 48.0 KHz
Bit depth : 16 bits
Compression mode : Lossy
Stream size : 302 MiB (10%)
Title : Original
Language : French
Default : No
Forced : No
Text #1
ID : 4
Format : UTF-8
Codec ID : S_TEXT/UTF8
Codec ID/Info : UTF-8 Plain Text
Title : Akuli
Language : Russian
Default : No
Forced : No
Text #2
ID : 5
Format : UTF-8
Codec ID : S_TEXT/UTF8
Codec ID/Info : UTF-8 Plain Text
Language : English
Default : No
Forced : No
Text #3
ID : 6
Format : UTF-8
Codec ID : S_TEXT/UTF8
Codec ID/Info : UTF-8 Plain Text
Language : Portuguese
Default : No
Forced : No
Menu
00:00:00.000 : fr:01. Rencontre avec Suzanne
00:08:35.125 : fr:02. Séance de spiritisme
00:14:00.958 : fr:03. Guillaume et Suzanne
00:22:08.125 : fr:04. Le Boom H.E.C.
00:25:15.625 : fr:05. Aux crochets de Suzanne
00:32:09.792 : fr:06. Retour de vacances
00:36:06.417 : fr:07. Conversation avec Sophie
00:39:25.542 : fr:08. Fin de soirée chez Bertrand
00:46:01.292 : fr:09. L'argent volé
00:52:30.917 : fr:10. Conclusion



Показать сообщения:    

Текущее время: 04-Дек 17:15

Часовой пояс: UTC + 3


Вы не можете начинать темы
Вы не можете отвечать на сообщения
Вы не можете редактировать свои сообщения
Вы не можете удалять свои сообщения
Вы не можете голосовать в опросах
Вы не можете прикреплять файлы к сообщениям
Вы не можете скачивать файлы