Волны / Las olas (Альберто Мораис / Alberto Morais) [2011, Испания, драма, HDTV 1080i] DVO


 

[Цитировать]

Волны / Las olas Страна: Испания
Жанр: драма
Год выпуска: 2011
Продолжительность: 01:31:31
Перевод: Профессиональный (двухголосый закадровый)
Cубтитры: нет
Режиссер: Альберто Мораис / Alberto Morais
В ролях: Армандо Агирре, Серхио Кабальеро, José Galotto, Лайя Маруль, Марта Виллалонга, Карлос Альварес-Новоа
Описание: 60 лет спустя Мигель возвращается из Мадрида в маленький приграничный городок Аржель, последнюю остановку беженцев из охваченной гражданской войной Испании. Это было совсем недавно или уже очень давно? Мигель воскрешает в своей памяти события далекого прошлого, пытаясь найти ответы на вопросы, которые мучили его всю жизнь и обрести, наконец, душевный покой.

Сэмпл: http://sendfile.su/1012771
Тип релиза: HDTV 1080i
Контейнер: TS
Видео: AVC/H.264, PAL, 1920x1080 (16:9), 9100 Кбит/сек, 25.000 fps
Аудио: русский, MP-2, 48000 Hz, 192 Кбит/сек, 2 ch

MediaInfo

Видео
Идентификатор : 224 (0xE0)
Идентификатор меню : 1 (0x1)
Формат : AVC
Формат/Информация : Advanced Video Codec
Профиль формата : High@L4.1
Параметр CABAC формата : Да
Параметр ReFrames формата : 3 кадра
Идентификатор кодека : 27
Продолжительность : 1 ч. 31 м.
Вид битрейта : Постоянный
Битрейт : 9100 Кбит/сек
Ширина : 1920 пикселей
Высота : 1080 пикселей
Соотношение сторон : 16:9
Частота кадров : 25,000 кадров/сек
Стандарт вещания : PAL
Цветовое пространство : YUV
Субдискретизация насыщенности : 4:2:0
Битовая глубина : 8 бит
Тип развёртки : Чересстрочная
Порядок развёртки : Верхнее поле первое
Бит/(Пиксели*Кадры) : 0.176
Размер потока : 5,71 Гбайт (93%)
Основные цвета : BT.709
Характеристики трансфера : BT.709
Коэффициенты матрицы : BT.709
Аудио
Идентификатор : 192 (0xC0)
Идентификатор меню : 1 (0x1)
Формат : MPEG Audio
Версия формата : Version 1
Профиль формата : Layer 2
Идентификатор кодека : 3
Продолжительность : 1 ч. 31 м.
Вид битрейта : Постоянный
Битрейт : 192 Кбит/сек
Каналы : 2 канала
Частота : 48,0 КГц
Метод сжатия : С потерями
Задержка видео : 16 мс.
Размер потока : 126 Мбайт (2%)
Язык : Russian

Скриншот с названием фильма

Скриншоты




Показать сообщения:    

Текущее время: 02-Дек 23:02

Часовой пояс: UTC + 3


Вы не можете начинать темы
Вы не можете отвечать на сообщения
Вы не можете редактировать свои сообщения
Вы не можете удалять свои сообщения
Вы не можете голосовать в опросах
Вы не можете прикреплять файлы к сообщениям
Вы не можете скачивать файлы