Пианистка / La Pianiste / The Piano Teacher (Михаэль Ханеке / Michael Haneke) [2001 г., Австрия, Франция, Германия, драма, BDRip 720p] MVO (Амальгама) + Original Fre + Sub (Rus, Eng, Por, Spa)


 

[Цитировать]

Пианистка / La Pianiste / The Piano Teacher- Год выпуска: 2001
Страна: Австрия, Франция, Германия
Жанр: драма
Продолжительность: 02:10:41
Перевод: Профессиональный (многоголосый закадровый) Амальгама
Оригинальная аудиодорожка: Французская
Cубтитры: Русские, английские, португальские, испанские-Режиссер: Михаэль Ханеке / Michael Haneke
В ролях: Изабель Юппер, Бенуа Мажимель, Анни Жирардо, Анна Сигалевич, Сюзанн Лотар, Удо Самель, Корнелия Кендген-Описание:
Экранизация одноименного романа Эльфриды Елинек.
Главная героиня Эрика (Изабель Юппер) учит молодежь музыке, но сама остается жертвой и порождением современной цивилизации. Она по-детски делит ложе со старой матерью-мегерой (Анни Жирардо), начисто лишена личной жизни, но тайно ходит в секс-шопы и держит под кроватью целый арсенал инструментов для садомазохистов. Когда в нее влюбляется один из учеников, она шокирует его дикими реакциями на юношеское чувство.- | IMDb | Сэмпл-Качество: BDRip 720p (CtrlHD)
Контейнер: MKV
Видео: x264, 1280x690 (1.85:1), 23.976 fps, 14979 kbps
Аудио 1: Русский AС3, 5.1, 48 kHz, 640 kbps
Аудио 2: Французский AС3, 5.1, 48 kHz, 640 kbps
Аудио 3: Русский AAC, 2.0, 48 kHz, 103 kbps – Комментарии
Формат субтитров: softsub (SRT)

Скриншоты

Sourcevs.CtrlHDvs.CtrlHD(old)







-

MInfo

The.Piano.Teacher.2001.720p.PROPER.BluRay.DTS.x264-CtrlHD
.GENERAL iNFORMATiON
RUNTiME.......: 02h:10m:41s
SiZE..........: 15 GB
ViDEO.CODEC...: x264, 2pass
FRAMERATE.....: 23.976fps
BiTRATE.......: 15 Mbps
RESOLUTiON....: 1280x690
AUDiO.........: French DTS 5.1 @ 1.5 Mbps
SUBTiTLES.....: English, Spanish, Portuguess
SUBS.FORMAT...: UTF-8 embedded srt
CHAPTERS......: Marked like on Blu-ray
SOURCE........: La pianiste 2001 1080p Blu-ray AVC DTS-HD MA 5.1
iMDB.RATiNG...: 7.4/10 from 28,329 users
iMDB.LiNK.....: http://www.imdb.com/title/tt0254686/
.Notes
The older one was deleted because of grain loss with low bitrate, so here is the new one.
Special thanks to all the CtrlHD members and Nick007.
.x264.Info
x264 [info]: profile High, level 4.1
x264 [info]: frame I:830 Avg QP:15.70 size:181560
x264 [info]: frame P:34333 Avg QP:16.96 size:130063
x264 [info]: frame B:152851 Avg QP:19.23 size: 65856
General
Unique ID : 248053492190753656416319707903796026719 (0xBA9D5D66490946BAA871268F43259D5F)
Complete name : The.Piano.Teacher.2001.720p.PROPER.BluRay.x264-CtrlHD.mkv
Format : Matroska
Format version : Version 2
File size : 14.9 GiB
Duration : 2h 10mn
Overall bit rate : 16.4 Mbps
Movie name : La Pianiste / Пианистка (2001) – RuTracker
Encoded date : UTC 2014-08-03 14:46:10
Writing application : mkvmerge v7.0.0 ('Where We Going') 64bit built on Jun 9 2014 15:16:27
Writing library : libebml v1.3.0 + libmatroska v1.4.1
Attachment : Yes
Video
ID : 1
Format : AVC
Format/Info : Advanced Video Codec
Format profile : High@L4.1
Format settings, CABAC : Yes
Format settings, ReFrames : 9 frames
Codec ID : V_MPEG4/ISO/AVC
Duration : 2h 10mn
Nominal bit rate : 15.0 Mbps
Width : 1 280 pixels
Height : 690 pixels
Display aspect ratio : 1.85:1
Frame rate mode : Constant
Frame rate : 23.976 fps
Color space : YUV
Chroma subsampling : 4:2:0
Bit depth : 8 bits
Scan type : Progressive
Bits/(Pixel*Frame) : 0.708
Title : The.Piano.Teacher.2001.720p.PROPER.BluRay.DTS.x264-CtrlHD
Writing library : x264 core 133 r2334 a3ac64b
Encoding settings : cabac=1 / ref=9 / deblock=1:-3:-3 / analyse=0x3:0x113 / me=umh / subme=11 / psy=1 / psy_rd=1.00:0.00 / mixed_ref=1 / me_range=48 / chroma_me=1 / trellis=2 / 8x8dct=1 / cqm=0 / deadzone=21,11 / fast_pskip=0 / chroma_qp_offset=-4 / threads=12 / lookahead_threads=2 / sliced_threads=0 / nr=0 / decimate=0 / interlaced=0 / bluray_compat=0 / constrained_intra=0 / bframes=8 / b_pyramid=2 / b_adapt=2 / b_bias=0 / direct=3 / weightb=1 / open_gop=0 / weightp=2 / keyint=250 / keyint_min=23 / scenecut=40 / intra_refresh=0 / rc_lookahead=200 / rc=2pass / mbtree=1 / bitrate=15000 / ratetol=1.0 / qcomp=0.50 / qpmin=0 / qpmax=69 / qpstep=4 / cplxblur=20.0 / qblur=0.5 / ip_ratio=1.20 / aq=1:0.80
Language : French
Default : Yes
Forced : No
Audio #1
ID : 2
Format : AC-3
Format/Info : Audio Coding 3
Mode extension : CM (complete main)
Format settings, Endianness : Big
Codec ID : A_AC3
Duration : 2h 10mn
Bit rate mode : Constant
Bit rate : 640 Kbps
Channel(s) : 6 channels
Channel positions : Front: L C R, Side: L R, LFE
Sampling rate : 48.0 KHz
Bit depth : 16 bits
Compression mode : Lossy
Stream size : 598 MiB (4%)
Title : MVO – Амальгама
Language : Russian
Default : Yes
Forced : No
Audio #2
ID : 3
Format : AC-3
Format/Info : Audio Coding 3
Mode extension : CM (complete main)
Format settings, Endianness : Big
Codec ID : A_AC3
Duration : 2h 10mn
Bit rate mode : Constant
Bit rate : 640 Kbps
Channel(s) : 6 channels
Channel positions : Front: L C R, Side: L R, LFE
Sampling rate : 48.0 KHz
Bit depth : 16 bits
Compression mode : Lossy
Stream size : 598 MiB (4%)
Title : Original
Language : French
Default : No
Forced : No
Audio #3
ID : 4
Format : AAC
Format/Info : Advanced Audio Codec
Format profile : LC
Codec ID : A_AAC
Duration : 2h 10mn
Channel(s) : 2 channels
Channel positions : Front: L R
Sampling rate : 48.0 KHz
Compression mode : Lossy
Title : Комментарии Изабель Юппер
Language : Russian
Default : No
Forced : No
Text #1
ID : 5
Format : UTF-8
Codec ID : S_TEXT/UTF8
Codec ID/Info : UTF-8 Plain Text
Title : Амальгама
Language : Russian
Default : No
Forced : No
Text #2
ID : 6
Format : UTF-8
Codec ID : S_TEXT/UTF8
Codec ID/Info : UTF-8 Plain Text
Language : English
Default : No
Forced : No
Text #3
ID : 7
Format : UTF-8
Codec ID : S_TEXT/UTF8
Codec ID/Info : UTF-8 Plain Text
Title : Portuguese
Language : Portuguese
Default : No
Forced : No
Text #4
ID : 8
Format : UTF-8
Codec ID : S_TEXT/UTF8
Codec ID/Info : UTF-8 Plain Text
Title : Spanish
Language : Spanish
Default : No
Forced : No
Menu
00:00:00.000 : en:Chapter 01
00:08:00.104 : en:Chapter 02
00:21:06.056 : en:Chapter 03
00:27:21.264 : en:Chapter 04
00:35:21.285 : en:Chapter 05
00:43:07.459 : en:Chapter 06
00:54:31.184 : en:Chapter 07
01:04:17.395 : en:Chapter 08
01:16:13.068 : en:Chapter 09
01:23:45.687 : en:Chapter 10
01:43:48.096 : en:Chapter 11
02:03:00.915 : en:Chapter 12
02:08:28.450 : en:Chapter 13



Показать сообщения:    

Текущее время: 11-Дек 05:21

Часовой пояс: UTC + 3


Вы не можете начинать темы
Вы не можете отвечать на сообщения
Вы не можете редактировать свои сообщения
Вы не можете удалять свои сообщения
Вы не можете голосовать в опросах
Вы не можете прикреплять файлы к сообщениям
Вы не можете скачивать файлы