Гуд бай, Ленин! / Good Bye Lenin! (Вольфганг Беккер / Wolfgang Becker) [2003, Германия, драма, мелодрама, комедия, BDRip 720p] MVO + Ukr + Original Ger + Comm + Sub Rus, Ukr, Eng, Ger


 

[Цитировать]

Гуд бай, Ленин! / Good Bye Lenin!- Год выпуска: 2003
Выпущено: Германия
Жанр: драма, мелодрама, комедия
Продолжительность: 02:01:08
Перевод: Профессиональный (многоголосый, закадровый) R5
Оригинальная звуковая дорожка: German
Субтитры: Russian (Full, Commentary #1), Ukrainian, English, German-Режиссер: Вольфганг Беккер / Wolfgang Becker
В ролях: Даниэль Брюль, Катрин Засс, Чулпан Хаматова, Мария Зимон, Флориан Лукас, Александр Байер, Бургхарт Клаусснер, Михаэль Гвиздек, Кристина Шорн, Юрген Хольц
О фильме: Мать Алекса впала в кому незадолго до падения Берлинской стены. А когда, наконец, пришла в себя, не было уже ни ГДР, ни стран «победившего социализма». Тревожась за здоровье матушки, Алекс решил не сообщать ей о переменах: ведь что может стать более убийственным для убеждённой коммунистки, чем торжество капитализма?
Сыну пришлось пойти на обман и превратить свою квартиру в островок прошлого, в последний оплот несуществующего государства. Старательно делать вид, что дело Ленина по-прежнему живет и побеждает.
DON!
Релиз: by almetyevec
Формат: MKV
Видео: 1278x720 at 24.000 fps, x264@L4.1, 2pass, ~11759 kbps avg
Аудио #01: Russian: 48 kHz, AC3, 3/2 (L,C,R,l,r) + LFE ch, ~384 kbps avg |Многоголосый закадровый, Rus R5|
Аудио #02: Russian: 48 kHz, AC3, 3/2 (L,C,R,l,r) + LFE ch, ~448 kbps avg |Многоголосый закадровый, Ukr R5|
Аудио #03: German: 48 kHz, AC3, 3/2 (L,C,R,l,r) + LFE ch, ~640 kbps avg
Аудио #04: German: 48 kHz, AC3, 2/0 (L,R) ch, ~192 kbps avg |Commentary #1|
Аудио #05: German: 48 kHz, AC3, 2/0 (L,R) ch, ~192 kbps avg |Commentary #2|
Семпл-
-

mInfo

Формат : Matroska
Версия формата : Version 4 / Version 2
Размер файла : 11,5 Гбайт
Продолжительность : 2 ч. 1 м.
Общий поток : 13,5 Мбит/сек
Дата кодирования : UTC 2014-07-21 22:45:19
Программа кодирования : mkvmerge v6.9.1 ('Blue Panther') 64bit built on Apr 18 2014 18:23:38
Библиотека кодирования : libebml v1.3.0 + libmatroska v1.4.1
Видео
Идентификатор : 1
Формат : AVC
Формат/Информация : Advanced Video Codec
Профиль формата : High@L4.1
Параметр CABAC формата : Да
Параметр ReFrames формата : 9 кадров
Идентификатор кодека : V_MPEG4/ISO/AVC
Продолжительность : 2 ч. 1 м.
Битрейт : 11,8 Мбит/сек
Ширина : 1278 пикселей
Высота : 720 пикселей
Соотношение сторон : 16:9
Режим частоты кадров : Постоянный
Частота кадров : 24,000 кадра/сек
Цветовое пространство : YUV
Субдискретизация насыщенности : 4:2:0
Битовая глубина : 8 бит
Тип развёртки : Прогрессивная
Бит/(Пиксели*Кадры) : 0.533
Размер потока : 9,72 Гбайт (84%)
Библиотека кодирования : x264 core 129 r2245 bc13772
Настройки программы : cabac=1 / ref=9 / deblock=1:-3:-3 / analyse=0x3:0x133 / me=umh / subme=10 / psy=1 / psy_rd=1.00:0.00 / mixed_ref=1 / me_range=32 / chroma_me=1 / trellis=2 / 8x8dct=1 / cqm=0 / deadzone=21,11 / fast_pskip=0 / chroma_qp_offset=-2 / threads=3 / lookahead_threads=1 / sliced_threads=0 / nr=0 / decimate=0 / interlaced=0 / bluray_compat=0 / constrained_intra=0 / bframes=9 / b_pyramid=2 / b_adapt=2 / b_bias=0 / direct=3 / weightb=1 / open_gop=0 / weightp=2 / keyint=250 / keyint_min=24 / scenecut=40 / intra_refresh=0 / rc=2pass / mbtree=0 / bitrate=11769 / ratetol=1.0 / qcomp=0.60 / qpmin=0 / qpmax=69 / qpstep=4 / cplxblur=20.0 / qblur=0.5 / ip_ratio=1.40 / pb_ratio=1.30 / aq=1:0.75 / zones=169801,174423,b=0.5
Default : Нет
Forced : Нет
Аудио #1
Идентификатор : 2
Формат : AC-3
Формат/Информация : Audio Coding 3
Расширение режима : CM (complete main)
Параметр Endianness формата : Big
Идентификатор кодека : A_AC3
Продолжительность : 2 ч. 1 м.
Вид битрейта : Постоянный
Битрейт : 384 Кбит/сек
Каналы : 6 каналов
Расположение каналов : Front: L C R, Side: L R, LFE
Частота : 48,0 КГц
Битовая глубина : 16 бит
Метод сжатия : С потерями
Размер потока : 335 Мбайт (3%)
Заголовок : MOV - Rus R5
Язык : Russian
Default : Да
Forced : Нет
Аудио #2
Идентификатор : 3
Формат : AC-3
Формат/Информация : Audio Coding 3
Расширение режима : CM (complete main)
Параметр Endianness формата : Big
Идентификатор кодека : A_AC3
Продолжительность : 2 ч. 1 м.
Вид битрейта : Постоянный
Битрейт : 448 Кбит/сек
Каналы : 6 каналов
Расположение каналов : Front: L C R, Side: L R, LFE
Частота : 48,0 КГц
Битовая глубина : 16 бит
Метод сжатия : С потерями
Размер потока : 391 Мбайт (3%)
Заголовок : MOV - Ukr R5
Язык : Russian
Default : Нет
Forced : Нет
Аудио #3
Идентификатор : 4
Формат : AC-3
Формат/Информация : Audio Coding 3
Расширение режима : CM (complete main)
Параметр Endianness формата : Big
Идентификатор кодека : A_AC3
Продолжительность : 2 ч. 1 м.
Вид битрейта : Постоянный
Битрейт : 640 Кбит/сек
Каналы : 6 каналов
Расположение каналов : Front: L C R, Side: L R, LFE
Частота : 48,0 КГц
Битовая глубина : 16 бит
Метод сжатия : С потерями
Размер потока : 558 Мбайт (5%)
Язык : German
Default : Нет
Forced : Нет
Аудио #4
Идентификатор : 5
Формат : AC-3
Формат/Информация : Audio Coding 3
Расширение режима : CM (complete main)
Параметр Endianness формата : Big
Идентификатор кодека : A_AC3
Продолжительность : 2 ч. 1 м.
Вид битрейта : Постоянный
Битрейт : 192 Кбит/сек
Каналы : 2 канала
Расположение каналов : Front: L R
Частота : 48,0 КГц
Битовая глубина : 16 бит
Метод сжатия : С потерями
Размер потока : 167 Мбайт (1%)
Заголовок : Commentary #1
Язык : German
Default : Нет
Forced : Нет
Аудио #5
Идентификатор : 6
Формат : AC-3
Формат/Информация : Audio Coding 3
Расширение режима : CM (complete main)
Параметр Endianness формата : Big
Идентификатор кодека : A_AC3
Продолжительность : 2 ч. 1 м.
Вид битрейта : Постоянный
Битрейт : 192 Кбит/сек
Каналы : 2 канала
Расположение каналов : Front: L R
Частота : 48,0 КГц
Битовая глубина : 16 бит
Метод сжатия : С потерями
Размер потока : 167 Мбайт (1%)
Заголовок : Commentary #2
Язык : German
Default : Нет
Forced : Нет
Текст #1
Идентификатор : 7
Формат : UTF-8
Идентификатор кодека : S_TEXT/UTF8
Идентификатор кодека/Информация : UTF-8 Plain Text
Язык : Russian
Default : Нет
Forced : Нет
Текст #2
Идентификатор : 8
Формат : UTF-8
Идентификатор кодека : S_TEXT/UTF8
Идентификатор кодека/Информация : UTF-8 Plain Text
Заголовок : Commentary #1
Язык : Russian
Default : Нет
Forced : Нет
Текст #3
Идентификатор : 9
Формат : UTF-8
Идентификатор кодека : S_TEXT/UTF8
Идентификатор кодека/Информация : UTF-8 Plain Text
Язык : Ukrainian
Default : Нет
Forced : Нет
Текст #4
Идентификатор : 10
Формат : UTF-8
Идентификатор кодека : S_TEXT/UTF8
Идентификатор кодека/Информация : UTF-8 Plain Text
Язык : English
Default : Нет
Forced : Нет
Текст #5
Идентификатор : 11
Формат : UTF-8
Идентификатор кодека : S_TEXT/UTF8
Идентификатор кодека/Информация : UTF-8 Plain Text
Язык : German
Default : Нет
Forced : Нет
Меню
00:00:00.000 : :00:00:00.000
00:04:09.125 : :00:04:09.125
00:08:18.375 : :00:08:18.375
00:11:43.833 : :00:11:43.833
00:16:10.542 : :00:16:10.542
00:18:21.875 : :00:18:21.875
00:21:16.500 : :00:21:16.500
00:23:20.292 : :00:23:20.292
00:26:26.542 : :00:26:26.542
00:29:06.750 : :00:29:06.750
00:33:21.667 : :00:33:21.667
00:38:30.917 : :00:38:30.917
00:43:50.417 : :00:43:50.417
00:48:08.417 : :00:48:08.417
00:50:53.417 : :00:50:53.417
00:52:40.083 : :00:52:40.083
00:57:09.250 : :00:57:09.250
01:04:42.792 : :01:04:42.792
01:07:30.708 : :01:07:30.708
01:10:52.042 : :01:10:52.042
01:16:58.167 : :01:16:58.167
01:20:38.708 : :01:20:38.708
01:26:29.708 : :01:26:29.708
01:30:25.958 : :01:30:25.958
01:35:03.500 : :01:35:03.500
01:38:54.583 : :01:38:54.583
01:45:16.958 : :01:45:16.958
01:48:30.375 : :01:48:30.375
01:55:01.250 : :01:55:01.250
01:56:55.750 : :01:56:55.750

-
* Сохранены оригинальные чаптеры с Blu-ray.
* За дорожку №1 спасибо arkahan.
* За русские субтитры комментариев спасибо garageforsal.
* За украинские субтитры спасибо hurtom.



Показать сообщения:    

Текущее время: 07-Дек 13:41

Часовой пояс: UTC + 3


Вы не можете начинать темы
Вы не можете отвечать на сообщения
Вы не можете редактировать свои сообщения
Вы не можете удалять свои сообщения
Вы не можете голосовать в опросах
Вы не можете прикреплять файлы к сообщениям
Вы не можете скачивать файлы