Время цыган / Дом для повешения / Time Of The Gypsies / Dom za vesanje (Эмир Кустурица / Emir Kusturica) [1988, Югославия, Великобритания, Италия, драма, HDTVRip 720p] [Театральная версия] 2х DVO + Dub + Sub Eng + Original


 

[Цитировать]

Время цыган / Дом для повешения / Time Of The Gypsies / Dom za vesanje
Театральная версия
Страна: Югославия, Великобритания, Италия
Студия: Forum Sarajevo
Жанр: драма
Год выпуска: 1988
Продолжительность: 02:16:17
Перевод 1: Профессиональный (двухголосый закадровый) (СВ-Дубль по заказу ТВ "Культура", 2006г.)
Перевод 2: Профессиональный (двухголосый закадровый) (Другое кино)
Перевод 3: Профессиональный (дублированный) (Киностудия им. М.Горького, 1991 г.)
Cубтитры: английские
Оригинальная аудиодорожка: сербско-хорватский
Режиссер: Эмир Кустурица / Emir Kusturica
В ролях: Давор Дуймович, Бора Тодорович, Любица Аджович, Хусния Хасимович, Синоличка Трпкова, Забит Мемедов, Эльвира Сали, Суада Карисик, Предраг Лакович, Мирсад Зулич, Седрийе Халим, Сабан Рожан, Бранко Джурич, Ирфан Джагли, Юлиана Демирович
Описание: Перхана, обладающего способностью взглядом передвигать предметы, воспитывает бабушка, сама наделенная даром лечить людей без лекарств. Есть у Перхана еще дядя, безнадежный игрок, не знающий, что такое удача, и сестра-калека. Появляется у Перхана и любовь, но родители не отдают за него дочь — Перхан беден, живет честно, а у таких деньги не заводятся. И он отправляется вместе с богатым цыганским бароном Ахметом в Италию, чтобы по дороге отдать сестру в больницу в Люблянах, заработать денег, построить дом и жениться на любимой…
Доп.информация:


Тип релиза: HDTVRip 720p | sample
Контейнер: MKV
Видео: H.264/AVC, 1280x720, 16:9, 25.00fps, 6857 Kbps
Аудио 1: Russian, DD 2.0, 48 kHz, 192 kbps DVO СВ-Дубль по заказу ТВ "Культура", 2006г.
Аудио 2: Russian, DD 2.0, 48 kHz, 192 kbps DVO Другое кино
Аудио 3: Russian, DD 2.0, 48 kHz, 192 kbps Dub Киностудия им. М.Горького, 1991 г.
Аудио 4: Serbian, DD 2.0, 48 kHz, 448 kbps original
Формат субтитров: softsub (SRT)

из книги «3500 кинорецензий» 9.0/10

Драматическая фантазия-притча
Как и получивший «Золотую пальмовую ветвь» в Канне фильм «Отец в командировке», картина «Дом для повешения» (оригинальное название всё-таки точнее международного, ассоциативно напоминая пословицу «в доме повешенного не говорят о верёвке») была создана молодым балканским гением Эмиром Кустурицей по сценарию 50-летнего Гордана Михича, который старше его на 16 лет. Она тоже удостоилась премии в Канне — на этот раз за режиссуру. И Кустурица ещё раз доказал, что он — подлинный мастер кинематографического письма, воздействующий своими красочными визуальными фантазиями и снами наяву, настоящий лирик, который сохраняет в себе восхищение человеческими чувствами и красотой мира вне зависимости, более того — вопреки драматической, жестокой, подчас ужасающе абсурдной действительности.
Внешний сюжет «Дома для повешения» как бы размыт, проглядывает сквозь туман, через прихотливые видения, экстравагантные аттракционы, но, в принципе, не сложен. Подросток Перхан (в его роли — уже снимавшийся в «Отце в командировке» юный Давор Дуймович, который, увы, позднее покончит с собой) живёт вместе с сестрой Дацей после смерти матери у своей бабушки — немножко колдуньи, немножко волшебницы. Он хочет отвезти больную девочку в больницу в Любляну, и в этом вызывается помочь Ахмед, авантюрист и проходимец, который вернулся из Италии разбогатевшим. Оказавшись в его бродячей труппе, Перхан узнаёт о том, что Ахмед занят эксплуатацией вывезенных из Югославии детей на воровстве и попрошайничестве, а также склонен к сутенёрству и сводничеству. Перхан тоже сколачивает состояние, а вернувшись в деревню, женится на возлюбленной Азре, которая вскоре умирает при родах. Желая отомстить подлому Ахмеду, так и не поместившему Дацу в больницу, Перхан гибнет сам от рук новой жены Ахмеда.
Эмир Кустурица превращает эту историю не просто в народную, «цыганскую драму», а в своего рода мифологическое сказание, метафизическую притчу, балансируя на грани между вымыслом и реальностью, мечтой и действительностью, бытовым и ирреальным миром, жизнью и смертью, проявляя себя как поэт и философ, воспаряющий от грязи и пороков к грёзам о некоем горнем крае. Критики вовсе не случайно вспомнили югославскую кинематографическую традицию (очевиднее родство с фильмом «Скупщики перьев» / «Я видел даже счастливых цыган» Александра Петровича, опосредованнее влияние лент Душана Макавеева, у которого, кстати, снимался Бора Тодорович, сыгравший роль Ахмеда), а также стиль «фантастического реализма» Габриэля Гарсии Маркеса. Сам режиссёр упоминал о несомненном влиянии искусства Андрея Тарковского, хотя после первых собственных работ заслужил право на «кино Кустурицы», которое включает в себя трагикомичность видения, высокую поэзию и изобразительную мощь.
Он немножко лукавил в интервью, заявляя о незначимости цыганского происхождения героев «Дома для повешения». Без своеобычности цыганского менталитета, карнавально-таборного восприятия жизни, иррационального вожделения свободы, которая порой превращается в свою противоположность, вещая байка Эмира Кустурицы прозвучала бы явно иначе — не так празднично-трагично и бесхитростно-пророчески. Ведь в гадании цыганки вульгарное и нахальное — лишь невольное прикрытие, маска для неизбежного и неотвратимого предсказания судьбы. То, что кажется смешным и глупо придуманным, затем неожиданно сбывается с более печальными последствиями. Снимая в течение 1987—88 годов свою картину, Кустурица по-цыгански сумел предугадать подлинно трагический исход для родной страны, в которой «дружная семья югославских народов» оказалась подобна племени бродячих цыган, пытающихся нелегально перебраться через итальянскую границу, чтобы промышлять на пропитание перед роскошным, величественно прекрасным миланским собором. А отчий край вдруг стал всеобщим «домом для повешения».
К чести постановщика, его фильмы не кажутся ни политически и социально ангажированными, ни заумно занудными, ни лжемессианскими. Художник творит раскованно, словно импровизационно, облекая сложные и тревожащие проблемы жизни и Бытия, истории и Вечности в волшебный стиль свободного поэтического сказа, наполненный многоцветьем такого разного, всё время меняющегося мира, пряным, подчас пикантным юмором, жестоким, именно цыганским мелодраматизмом любви и смерти в судьбах героев. Эмир Кустурица обладает даром ненавязчивого, но затейливого сопряжения «низкого» и «высокого», причудливого смешения жанров и манер, создания своеобразного «сновиденческого реализма», в котором вечные истины предстают в форме мгновенных прозрений, ярких, впечатляющих образов, народно-площадных фантазий.
Его возвышенные пророчества напоминают откровения странствующего поэта, кочующего цыгана или побирающегося бродяги — нищего, юродивого, блаженного. Сочная и густая вязь быта, грубый, неприкрашенный натурализм «дна жизни» (иначе — «подполья», если использовать название другой работы режиссёра, вновь отмеченной главным призом в Канне), безысходность и мрак существования отверженных — как бы необходимое условие для перехода в иное качество. «Орфей поднимается из ада» — так, наверное, можно определить смысл художественных усилий Кустурицы. Даже погибающие герои на самом деле возвращаются из царства мёртвых, уносятся в предсмертных снах в немыслимые дали, где найдут отдохновение и примирение, наконец-то обретут потерянную душу, которая, по сути, бессмертна.
1989

MI

General
Unique ID                                : 249118860352577713482600479742223560409 (0xBB6A8C1AF73D6496A26B72F0F8F5AED9)
Complete name                            : Dom.za.vesanje.aka.Time.of.the.Gypsies.1988.720p.HDTVRip.mkv
Format                                   : Matroska
Format version                           : Version 4 / Version 2
File size                                : 7.50 GiB
Duration                                 : 2h 16mn
Overall bit rate                         : 7 876 Kbps
Movie name                               : Dom za vesanje (1988)
Encoded date                             : UTC 2014-08-02 11:28:09
Writing application                      : mkvmerge v7.0.0 ('Where We Going') 32bit built on Jun  9 2014 15:08:34
Writing library                          : libebml v1.3.0 + libmatroska v1.4.1
_STATISTICS_WRITING_APP                  : mkvmerge v7.0.0 ('Where We Going') 32bit built on Jun  9 2014 15:08:34
_STATISTICS_WRITING_DATE_UTC             : 2014-08-02 11:28:09
_STATISTICS_TAGS                         : BPS DURATION NUMBER_OF_FRAMES NUMBER_OF_BYTES
DURATION                                 : 02:10:07.002000000
NUMBER_OF_FRAMES                         : 1175
NUMBER_OF_BYTES                          : 30069
Video
ID                                       : 1
Format                                   : AVC
Format/Info                              : Advanced Video Codec
Format profile                           : High@L4.0
Format settings, CABAC                   : Yes
Format settings, ReFrames                : 9 frames
Codec ID                                 : V_MPEG4/ISO/AVC
Duration                                 : 2h 16mn
Bit rate                                 : 6 857 Kbps
Width                                    : 1 280 pixels
Height                                   : 720 pixels
Display aspect ratio                     : 16:9
Frame rate mode                          : Constant
Frame rate                               : 25.000 fps
Color space                              : YUV
Chroma subsampling                       : 4:2:0
Bit depth                                : 8 bits
Scan type                                : Progressive
Bits/(Pixel*Frame)                       : 0.298
Stream size                              : 6.37 GiB (85%)
Writing library                          : x264 core 142 r2453kMod ea0ca51
Encoding settings                        : cabac=1 / ref=9 / deblock=1:-3:-3 / analyse=0x3:0x133 / me=tesa / subme=11 / psy=1 / fade_compensate=0.00 / psy_rd=1.10:0.05 / mixed_ref=1 / me_range=16 / chroma_me=1 / trellis=2 / 8x8dct=1 / cqm=0 / deadzone=21,11 / fast_pskip=1 / chroma_qp_offset=-3 / threads=6 / lookahead_threads=1 / sliced_threads=0 / nr=0 / decimate=1 / interlaced=0 / bluray_compat=0 / constrained_intra=0 / fgo=0 / bframes=8 / b_pyramid=2 / b_adapt=2 / b_bias=0 / direct=3 / weightb=1 / open_gop=0 / weightp=2 / keyint=250 / keyint_min=25 / scenecut=40 / intra_refresh=0 / rc=2pass / mbtree=0 / bitrate=6857 / ratetol=1.0 / qcomp=0.70 / qpmin=0 / qpmax=69 / qpstep=4 / cplxblur=20.0 / qblur=0.5 / ip_ratio=1.40 / pb_ratio=1.30 / aq=1:0.70
Language                                 : English
Default                                  : Yes
Forced                                   : No
_STATISTICS_WRITING_APP                  : mkvmerge v7.0.0 ('Where We Going') 32bit built on Jun  9 2014 15:08:34
_STATISTICS_WRITING_DATE_UTC             : 2014-08-02 11:28:09
_STATISTICS_TAGS                         : BPS DURATION NUMBER_OF_FRAMES NUMBER_OF_BYTES
DURATION                                 : 02:16:08.480000000
NUMBER_OF_FRAMES                         : 204213
NUMBER_OF_BYTES                          : 7001190423
Audio #1
ID                                       : 2
Format                                   : AC-3
Format/Info                              : Audio Coding 3
Mode extension                           : CM (complete main)
Format settings, Endianness              : Big
Codec ID                                 : A_AC3
Duration                                 : 2h 16mn
Bit rate mode                            : Constant
Bit rate                                 : 192 Kbps
Channel(s)                               : 2 channels
Channel positions                        : Front: L R
Sampling rate                            : 48.0 KHz
Bit depth                                : 16 bits
Compression mode                         : Lossy
Stream size                              : 187 MiB (2%)
Title                                    : DVO, СВ-Дубль, ГТРК "Культура"
Language                                 : Russian
Default                                  : Yes
Forced                                   : No
Audio #2
ID                                       : 3
Format                                   : AC-3
Format/Info                              : Audio Coding 3
Mode extension                           : CM (complete main)
Format settings, Endianness              : Big
Codec ID                                 : A_AC3
Duration                                 : 2h 16mn
Bit rate mode                            : Constant
Bit rate                                 : 192 Kbps
Channel(s)                               : 2 channels
Channel positions                        : Front: L R
Sampling rate                            : 48.0 KHz
Bit depth                                : 16 bits
Compression mode                         : Lossy
Stream size                              : 187 MiB (2%)
Title                                    : DVO, Другое кино
Language                                 : Russian
Default                                  : No
Forced                                   : No
Audio #3
ID                                       : 4
Format                                   : AC-3
Format/Info                              : Audio Coding 3
Mode extension                           : CM (complete main)
Format settings, Endianness              : Big
Codec ID                                 : A_AC3
Duration                                 : 2h 16mn
Bit rate mode                            : Constant
Bit rate                                 : 192 Kbps
Channel(s)                               : 2 channels
Channel positions                        : Front: L R
Sampling rate                            : 48.0 KHz
Bit depth                                : 16 bits
Compression mode                         : Lossy
Stream size                              : 187 MiB (2%)
Title                                    : Dub, Киностудия им. М.Горького, 1991 г.
Language                                 : Russian
Default                                  : No
Forced                                   : No
Audio #4
ID                                       : 5
Format                                   : AC-3
Format/Info                              : Audio Coding 3
Format profile                           : Dolby Digital
Mode extension                           : CM (complete main)
Format settings, Endianness              : Big
Codec ID                                 : A_AC3
Duration                                 : 2h 16mn
Bit rate mode                            : Constant
Bit rate                                 : 448 Kbps
Channel(s)                               : 2 channels
Channel positions                        : Front: L R
Sampling rate                            : 48.0 KHz
Bit depth                                : 16 bits
Compression mode                         : Lossy
Stream size                              : 437 MiB (6%)
Language                                 : Serbian
Default                                  : No
Forced                                   : No
Text
ID                                       : 6
Format                                   : UTF-8
Codec ID                                 : S_TEXT/UTF8
Codec ID/Info                            : UTF-8 Plain Text
Language                                 : English
Default                                  : No
Forced                                   : No
Menu
00:00:00.000                             : en:Chapter 1
00:07:53.000                             : en:Chapter 2
00:15:24.080                             : en:Chapter 3
00:24:05.960                             : en:Chapter 4
00:32:04.080                             : en:Chapter 5
00:40:35.160                             : en:Chapter 6
00:49:19.200                             : en:Chapter 7
00:56:48.960                             : en:Chapter 8
01:05:49.920                             : en:Chapter 9
01:14:58.080                             : en:Chapter 10
01:21:33.080                             : en:Chapter 11
01:27:18.920                             : en:Chapter 12
01:35:43.160                             : en:Chapter 13
01:45:06.920                             : en:Chapter 14
01:53:49.160                             : en:Chapter 15
02:03:41.840                             : en:Chapter 16



Показать сообщения:    

Текущее время: 04-Дек 19:21

Часовой пояс: UTC + 3


Вы не можете начинать темы
Вы не можете отвечать на сообщения
Вы не можете редактировать свои сообщения
Вы не можете удалять свои сообщения
Вы не можете голосовать в опросах
Вы не можете прикреплять файлы к сообщениям
Вы не можете скачивать файлы