Вкус сайры / Осенний полдень / Sanma no aji / An Autumn Afternoon (Ясудзиро Одзу / Yasujiro Ozu) [1962, Япония, Драма, BDRip 720p] DVO + Sub Rus, Eng + Original Jap


 

[Цитировать]

Вкус сайры / Осенний полдень / Sanma no aji / An Autumn Afternoon
Страна: Япония
Жанр: Драма
Год выпуска: 1962
Продолжительность: 1:52:44
Перевод: Профессиональный (двухголосый закадровый)
Cубтитры: русские, английские
Оригинальная аудиодорожка: Японский
Режиссер: Ясудзиро Одзу / Yasujiro Ozu
В ролях: Чишу Рюи, Сима Ивасита, Кейдзи Сада, Марико Окада, Теруо Ёсида, Норико Маки, Синикиро Миками, Нобуо Накамура, Эйдзиро Тоно, Кунико Мийяке, Киоко Кисида, Микийо Кан, Рюдзи Кита, Тойоко Такахаси, Синобу Асадзи
Описание: Мужчина по имени Шухей Хираяма счастлив своей налаженной жизнью. У него хорошая работа, а вскоре его ожидает долгожданный выход на пенсию. У него трое замечательных детей: старший сын женат и счастлив в браке, младший сын устроился на приличную работу, а дочь, после кончины его жены, занимается всеми делами по дому. Однако Шухей постепенно начинает понимать, что его дочь не обязана вечно ухаживать за ним и его жилищем, пока он не умрет, и тогда он решает устроить для своей дочери брак…
Сэмпл: http://sendfile.su/1007245
Тип релиза: BDRip 720p
Контейнер: MKV
Видео: AVC, 960х720, 4:3, 6 100 Kbps, 24.000 fps
Аудио: японский / оригинальный, AC-3, 2 channels, 48.0 KHz, 448 Kbps
Аудио 2: русский / проф. DVO, AC-3, 2 channels, 48.0 KHz, 192 Kbps
Формат субтитров: softsub (SRT)

MediaInfo

Format : Matroska
Format version : Version 4 / Version 2
File size : 5.31 GiB
Duration : 1h 52mn
Overall bit rate : 6 742 Kbps
Encoded date : UTC 2014-07-31 19:32:12
Writing application : mkvmerge v6.1.0 ('Old Devil') built on Mar 4 2013 09:10:42
Writing library : libebml v1.3.0 + libmatroska v1.4.0
Video
ID : 1
Format : AVC
Format/Info : Advanced Video Codec
Format profile : High@L4.1
Format settings, CABAC : Yes
Format settings, ReFrames : 7 frames
Codec ID : V_MPEG4/ISO/AVC
Duration : 1h 52mn
Bit rate : 6 100 Kbps
Width : 960 pixels
Height : 720 pixels
Display aspect ratio : 4:3
Frame rate mode : Constant
Frame rate : 24.000 fps
Color space : YUV
Chroma subsampling : 4:2:0
Bit depth : 8 bits
Scan type : Progressive
Bits/(Pixel*Frame) : 0.368
Stream size : 4.70 GiB (89%)
Writing library : x264 core 142 r2431 ac76440
Encoding settings : cabac=1 / ref=7 / deblock=1:0:0 / analyse=0x3:0x133 / me=umh / subme=10 / psy=1 / psy_rd=1.00:0.00 / mixed_ref=1 / me_range=44 / chroma_me=1 / trellis=2 / 8x8dct=1 / cqm=0 / deadzone=21,11 / fast_pskip=1 / chroma_qp_offset=-2 / threads=3 / lookahead_threads=1 / sliced_threads=0 / nr=0 / decimate=1 / interlaced=0 / bluray_compat=0 / constrained_intra=0 / bframes=8 / b_pyramid=2 / b_adapt=2 / b_bias=0 / direct=3 / weightb=1 / open_gop=0 / weightp=2 / keyint=240 / keyint_min=24 / scenecut=40 / intra_refresh=0 / rc_lookahead=60 / rc=2pass / mbtree=1 / bitrate=6100 / ratetol=1.0 / qcomp=0.60 / qpmin=0 / qpmax=69 / qpstep=4 / cplxblur=20.0 / qblur=0.5 / vbv_maxrate=23500 / vbv_bufsize=38125 / nal_hrd=none / filler=0 / ip_ratio=1.40 / aq=1:1.00
Language : Japanese
Default : Yes
Forced : No
Audio #1
ID : 2
Format : AC-3
Format/Info : Audio Coding 3
Mode extension : CM (complete main)
Format settings, Endianness : Big
Codec ID : A_AC3
Duration : 1h 52mn
Bit rate mode : Constant
Bit rate : 448 Kbps
Channel(s) : 2 channels
Channel positions : Front: L R
Sampling rate : 48.0 KHz
Bit depth : 16 bits
Compression mode : Lossy
Stream size : 361 MiB (7%)
Title : Original
Language : Japanese
Default : No
Forced : No
Audio #2
ID : 3
Format : AC-3
Format/Info : Audio Coding 3
Mode extension : CM (complete main)
Format settings, Endianness : Big
Codec ID : A_AC3
Duration : 1h 52mn
Bit rate mode : Constant
Bit rate : 192 Kbps
Channel(s) : 2 channels
Channel positions : Front: L R
Sampling rate : 48.0 KHz
Bit depth : 16 bits
Compression mode : Lossy
Stream size : 155 MiB (3%)
Title : Профессиональный двухголосый
Language : Russian
Default : No
Forced : No
Text #1
ID : 4
Format : UTF-8
Codec ID : S_TEXT/UTF8
Codec ID/Info : UTF-8 Plain Text
Language : Russian
Default : No
Forced : No
Text #2
ID : 5
Format : UTF-8
Codec ID : S_TEXT/UTF8
Codec ID/Info : UTF-8 Plain Text
Language : English
Default : No
Forced : No

Скриншоты




Показать сообщения:    

Текущее время: 03-Дек 05:25

Часовой пояс: UTC + 3


Вы не можете начинать темы
Вы не можете отвечать на сообщения
Вы не можете редактировать свои сообщения
Вы не можете удалять свои сообщения
Вы не можете голосовать в опросах
Вы не можете прикреплять файлы к сообщениям
Вы не можете скачивать файлы