Последний поворот на Бруклин / Last Exit to Brooklyn (Ули Эдель / Uli Edel) [1989, США, Великобритания, Германия (ФРГ), Драма, экранизация, BDRemux 1080p] MVO + 2х AVO (Михалёв, Гаврилов) + Sub Rus, Eng + Original Eng


 

[Цитировать]

Последний поворот на Бруклин / Last Exit to Brooklyn
Страна: США, Великобритания, Германия (ФРГ)
Жанр: Драма, экранизация
Год выпуска: 1989
Продолжительность: 01:42:55
Перевод 1: Профессиональный (многоголосый закадровый)
Перевод 2: Авторский (одноголосый закадровый) Алексей Михалёв
Перевод 3: Авторский (одноголосый закадровый) Андрей Гаврилов
Cубтитры: русские, английские
Оригинальная аудиодорожка: английский
Режиссер: Ули Эдель / Uli Edel
В ролях: Стивен Лэнг, Дженнифер Джейсон Ли, Бёрт Янг, Питер Добсон, Джерри Орбах, Стивен Болдуин, Джейсон Эндрюс, Сэм Рокуэлл, Майа Дэнзигер, Камилль Савиола, Рики Лэйк, Камерон Йохан, Джон Костелло, Кристофер Мерни, Николас Дж. Джанджулио, Алексис Аркетт, Марк Бун Джуниор, Дэвид Уоршофски, Дэниэл О’Ши, Дэниэл Бир, Рутанья Алда, Джеймс Харпер, Майк Старр, Кристофер Карри, Майкл О’Харе, Джозеф Карберри, Билл Монди
Описание: В 1952 году нищета, царящая в Бруклине, породила особую форму жизни. Те, кто не собирался вкалывать задарма, находили другие способы добывания денег: грабежи, проституция, торговля наркотиками. Обычные дела на этом единственном пути под названием «85-я улица». Только вот не всякий мог пройти этот путь до конца…
Сэмпл
Качество видео: BDRemux 1080p
Формат видео: MKV
Видео: MPEG-4 AVC, 22986 Кбит/с, 1920x1080, 23.976 кадр/с
Аудио 1: Русский: AC3, 2 ch, 48 kHz, 192 Кбит/с, 16-bit / Профессиональный многоголосый
Аудио 2: Русский: AC3, 2 ch, 48 kHz, 192 Кбит/с, 16-bit / Авторский одноголосый (Алексей Михалёв)
Аудио 3: Русский: AC3, 2 ch, 48 kHz, 192 Кбит/с, 16-bit / Авторский одноголосый (Андрей Гаврилов)
Аудио 4: Английский: DTS-HD MA, 5.1 ch, 48 kHz, 2784 Кбит/с, 24-bit (DTS Core: 5.1 / 48 kHz / 1509 kbps / 24-bit)
Формат субтитров: softsub (SRT)
Релиз от: Rip by

MediaInfo

Unique ID : 247126786616004956453273527802306254016 (0xB9EAE34982185750ACA785C21A1C54C0)
Complete name : E:MCPosledniy.poworot.na.Bruklin.1989.x264.BDRemux(1080p)-MediaClubPosledniy.poworot.na.Bruklin.1989.x264.BDRemux(1080p)-MediaClub.mkv
Format : Matroska
Format version : Version 4 / Version 2
File size : 18.9 GiB
Duration : 1h 42mn
Overall bit rate mode : Variable
Overall bit rate : 26.3 Mbps
Movie name : -= Release MediaClub =-
Encoded date : UTC 2014-07-23 16:00:42
Writing application : mkvmerge v6.4.1 ('Omega Point') built on Sep 16 2013 22:05:10
Writing library : libebml v1.3.0 + libmatroska v1.4.1
Video
ID : 1
Format : AVC
Format/Info : Advanced Video Codec
Format profile : High@L4.1
Format settings, CABAC : Yes
Format settings, ReFrames : 2 frames
Format settings, GOP : M=1, N=10
Codec ID : V_MPEG4/ISO/AVC
Duration : 1h 42mn
Bit rate mode : Variable
Bit rate : 23.7 Mbps
Width : 1 920 pixels
Height : 1 080 pixels
Display aspect ratio : 16:9
Frame rate : 23.976 fps
Color space : YUV
Chroma subsampling : 4:2:0
Bit depth : 8 bits
Scan type : Progressive
Bits/(Pixel*Frame) : 0.476
Stream size : 17.0 GiB (90%)
Title : Posledniy.poworot.na.Bruklin.1989.x264.BDRmux(1080p)-neni
Language : English
Default : No
Forced : No
Audio #1
ID : 2
Format : AC-3
Format/Info : Audio Coding 3
Mode extension : CM (complete main)
Format settings, Endianness : Big
Codec ID : A_AC3
Duration : 1h 42mn
Bit rate mode : Constant
Bit rate : 192 Kbps
Channel(s) : 2 channels
Channel positions : Front: L R
Sampling rate : 48.0 KHz
Bit depth : 16 bits
Compression mode : Lossy
Stream size : 141 MiB (1%)
Title : MVO @ AC3 192 kbs
Language : Russian
Default : Yes
Forced : No
Audio #2
ID : 3
Format : AC-3
Format/Info : Audio Coding 3
Mode extension : CM (complete main)
Format settings, Endianness : Big
Codec ID : A_AC3
Duration : 1h 42mn
Bit rate mode : Constant
Bit rate : 192 Kbps
Channel(s) : 2 channels
Channel positions : Front: L R
Sampling rate : 48.0 KHz
Bit depth : 16 bits
Compression mode : Lossy
Stream size : 141 MiB (1%)
Title : AVO Michalev @ AC3 192 kbs
Language : Russian
Default : No
Forced : No
Audio #3
ID : 4
Format : AC-3
Format/Info : Audio Coding 3
Mode extension : CM (complete main)
Format settings, Endianness : Big
Codec ID : A_AC3
Duration : 1h 42mn
Bit rate mode : Constant
Bit rate : 192 Kbps
Channel(s) : 2 channels
Channel positions : Front: L R
Sampling rate : 48.0 KHz
Bit depth : 16 bits
Compression mode : Lossy
Stream size : 141 MiB (1%)
Title : AVO Gavrilov @ AC3 192 kbs
Language : Russian
Default : No
Forced : No
Audio #4
ID : 5
Format : DTS
Format/Info : Digital Theater Systems
Format profile : MA / Core
Codec ID : A_DTS
Duration : 1h 42mn
Bit rate mode : Variable
Bit rate : 1 561 Kbps / 1 510 Kbps
Channel(s) : 6 channels
Channel positions : Front: L C R, Side: L R, LFE
Sampling rate : 48.0 KHz
Bit depth : 24 bits
Compression mode : Lossless / Lossy
Title : Original
Language : English
Default : No
Forced : No
Text #1
ID : 6
Format : UTF-8
Codec ID : S_TEXT/UTF8
Codec ID/Info : UTF-8 Plain Text
Title : RUS
Language : Russian
Default : No
Forced : No
Text #2
ID : 7
Format : UTF-8
Codec ID : S_TEXT/UTF8
Codec ID/Info : UTF-8 Plain Text
Language : English
Default : No
Forced : No
Menu
00:00:00.000 : en:00:00:00.000
00:08:34.139 : en:00:08:34.139
00:12:56.901 : en:00:12:56.901
00:19:24.914 : en:00:19:24.914
00:24:18.082 : en:00:24:18.082
00:30:09.808 : en:00:30:09.808
00:34:46.418 : en:00:34:46.418
00:41:39.122 : en:00:41:39.122
00:48:48.175 : en:00:48:48.175
00:54:10.414 : en:00:54:10.414
01:00:56.111 : en:01:00:56.111
01:07:29.837 : en:01:07:29.837
01:12:55.830 : en:01:12:55.830
01:17:12.127 : en:01:17:12.127
01:23:01.935 : en:01:23:01.935
01:27:36.168 : en:01:27:36.168
01:32:14.612 : en:01:32:14.612
01:37:58.122 : en:01:37:58.122

Скриншоты




Показать сообщения:    

Текущее время: 18-Янв 02:33

Часовой пояс: UTC + 3


Вы не можете начинать темы
Вы не можете отвечать на сообщения
Вы не можете редактировать свои сообщения
Вы не можете удалять свои сообщения
Вы не можете голосовать в опросах
Вы не можете прикреплять файлы к сообщениям
Вы не можете скачивать файлы