Страх и ненависть в Лас-Вегасе / Fear and Loathing in Las Vegas (Терри Гиллиам / Terry Gilliam) [1998, США, Драма, Комедия, HDTV 1080i] MVO (1 канал)


 

[Цитировать]

Страх и ненависть в Лас-Вегасе / Fear and Loathing in Las Vegas
Страна: США
Жанр: Драма, Комедия
Год выпуска: 1998
Продолжительность: 01:48:13
Перевод: Профессиональный (многоголосый закадровый) 1 канал
Cубтитры: нет
Оригинальная аудиодорожка: нет
Режиссер: Терри Гиллиам / Terry Gilliam
В ролях: Джонни Депп, Бенисио Дель Торо, Тоби Магвайр, Эллен Баркин, Гари Бьюзи, Кристина Риччи, Марк Хэрмон, Кэмерон Диаз, Кэтрин Хелмонд, Майкл Джетер, Пенн Джиллетт, Крэйг Бирко, Лайл Ловетт, Флеа, Лорин Ньюман, Гарри Дин Стэнтон, Тим Томерсон, Майкл Ли Годжин, Ларри Седар, Брайан Ле Барон, Майкл Уорвик
Описание: Два приятеля едут в Лас-Вегас. Одного из них зовут Рауль Дьюк, он спортивный обозреватель, и в Вегас едет чтобы осветить знаменитую «Минт 400». Второго зовут Доктор Гонзо. Или что-то вроде того. А еще Доктор Гонзо - адвокат, но какая разница? Да и вокруг творится нечто невообразимое. Родную Неваду не узнать. Только специальные препараты могут спасти от всех этих тварей. Нормальным парням вроде наших героев временами даже как-то неуютно в этом хаосе...
Доп. информация: Запись с канала Первый HD. Здесь более полная картинка, в отличие от BD и DVD http://screenshotcomparison.com/comparison/85468.
Сэмпл: https://yadi.sk/i/c200-5CjY3y4p
Тип релиза: HDTV 1080i
Контейнер: TS
Видео: AVC, 1920x1080 (16/9), 25.000 fps, 11.5 Mbps (0.223 bit/pixel)
Аудио: MP2, 48.0 KHz, 2 ch, 192 Kbps, CBR (Russian)

MediaInfo

Общее
Идентификатор : 3 (0x3)
Полное имя : K:\Страх и ненависть в Лас-Вегасе.ts
Формат : MPEG-TS
Размер файла : 9,54 Гбайт
Продолжительность : 1 ч. 48 м.
Режим общего битрейта : Переменный
Общий поток : 12,6 Мбит/сек
Видео
Идентификатор : 2141 (0x85D)
Идентификатор меню : 21004 (0x520C)
Формат : AVC
Формат/Информация : Advanced Video Codec
Профиль формата : Main@L4.0
Параметр CABAC формата : Да
Параметр ReFrames формата : 3 кадра
Идентификатор кодека : 27
Продолжительность : 1 ч. 48 м.
Битрейт : 11,8 Мбит/сек
Ширина : 1920 пикселей
Высота : 1080 пикселей
Соотношение сторон : 16:9
Частота кадров : 25,000 кадров/сек
Стандарт вещания : Component
Цветовое пространство : YUV
Субдискретизация насыщенности : 4:2:0
Битовая глубина : 8 бит
Тип развёртки : Чересстрочная
Порядок развёртки : Верхнее поле первое
Бит/(Пиксели*Кадры) : 0.227
Размер потока : 8,92 Гбайт (94%)
Основные цвета : BT.709
Характеристики трансфера : BT.709
Коэффициенты матрицы : BT.709
Аудио
Идентификатор : 2142 (0x85E)
Идентификатор меню : 21004 (0x520C)
Формат : MPEG Audio
Версия формата : Version 1
Профиль формата : Layer 2
Идентификатор кодека : 4
Продолжительность : 1 ч. 48 м.
Вид битрейта : Постоянный
Битрейт : 192 Кбит/сек
Каналы : 2 канала
Частота : 48,0 КГц
Метод сжатия : С потерями
Задержка видео : -1 мс.
Размер потока : 149 Мбайт (2%)
Язык : Russian

Скриншоты




Показать сообщения:    

Текущее время: 07-Дек 11:40

Часовой пояс: UTC + 3


Вы не можете начинать темы
Вы не можете отвечать на сообщения
Вы не можете редактировать свои сообщения
Вы не можете удалять свои сообщения
Вы не можете голосовать в опросах
Вы не можете прикреплять файлы к сообщениям
Вы не можете скачивать файлы