Карманник / Pickpocket (Робер Брессон / Robert Bresson) [1959, Франция, драма, криминал, BDRemux 1080p] [The Criterion Collection] MVO + Sub Rus, Eng + Original Fre


 

[Цитировать]

Карманник / Pickpocket
Страна: Франция
Студия: Compagnie Cinématographique de France
Жанр: драма, криминал
Год выпуска: 1959
Продолжительность: 01:16:19
Перевод: Профессиональный (многоголосый закадровый)
Cубтитры: русские, английские
Оригинальная аудиодорожка: французский
Режиссер: Робер Брессон / Robert Bresson
В ролях: Мартин ЛаСалль, Марика Грин, Жан Пелегри, Долли Скаль, Пьер Лемари, Кассажи, Пьер Этекс, Сезар Гаттеньо, Софи Сен-Жюст, Доминик Зарди
Описание: Мишель начинает карьеру карманного воришки от безделья. Криминальному хобби вскоре приходит конец — вора-дилетанта быстренько «заметает» полиция. Но из-за отсутствия улик Мишеля освобождают. Оставшийся без матери и без поддержки своих друзей, вновь возвращается к мелкому воровству. Но на этот раз ему везет больше, потому что он берет уроки у общепризнанного мастера. Самый необычный карманник не собирается останавливаться на достигнутом, так как считает, что воровство для него — единственный способ самовыражения.

Sample
Тип релиза: BDRemux 1080p
Контейнер: MKV
Видео: MPEG4 AVC Video, H264, 1920x1080, 23,976 fps, 34.9 Mbps
Аудио: Russian (AC3, 2 ch, 192 kbps, 16 bits, 48.0 KHz) - MVO
Аудио 2: French (DTS-HD MA, 1 ch, 714 kbps, 24 bits, 48.0 KHz / DTS core: 1 ch, 256 kbps, 24 bits, 48.0 KHz) - оригинал
Аудио 3: English (AC3, 1 ch, 192 kbps, 16 bits, 48.0 KHz) - комментарии
Формат субтитров: softsub (SRT)

MediaInfo

General
Unique ID : 173745837662162005443450719437711858304 (0x82B63B2C6CC612D2A6316D5DDF59DA80)
Complete name : E:\1\Pickpocket.1959\Pickpocket 1959 BDRemux.mkv
Format : Matroska
Format version : Version 4 / Version 2
File size : 19.1 GiB
Duration : 1h 16mn
Overall bit rate mode : Variable
Overall bit rate : 35.8 Mbps
Encoded date : UTC 2014-07-26 19:01:05
Writing application : mkvmerge v6.1.0 ('Old Devil') built on Mar 2 2013 14:32:37
Writing library : libebml v1.3.0 + libmatroska v1.4.0
Video
ID : 1
Format : AVC
Format/Info : Advanced Video Codec
Format profile : High@L4.1
Format settings, CABAC : Yes
Format settings, ReFrames : 4 frames
Codec ID : V_MPEG4/ISO/AVC
Duration : 1h 16mn
Bit rate mode : Variable
Maximum bit rate : 37.0 Mbps
Width : 1 920 pixels
Height : 1 080 pixels
Display aspect ratio : 16:9
Frame rate mode : Constant
Frame rate : 23.976 fps
Color space : YUV
Chroma subsampling : 4:2:0
Bit depth : 8 bits
Scan type : Progressive
Language : French
Default : Yes
Forced : No
Audio #1
ID : 2
Format : AC-3
Format/Info : Audio Coding 3
Mode extension : CM (complete main)
Format settings, Endianness : Big
Codec ID : A_AC3
Duration : 1h 16mn
Bit rate mode : Constant
Bit rate : 192 Kbps
Channel count : 2 channels
Channel positions : Front: L R
Sampling rate : 48.0 KHz
Bit depth : 16 bits
Compression mode : Lossy
Stream size : 105 MiB (1%)
Language : Russian
Default : Yes
Forced : No
Audio #2
ID : 3
Format : DTS
Format/Info : Digital Theater Systems
Format profile : MA / Core
Mode : 16
Format settings, Endianness : Big
Codec ID : A_DTS
Duration : 1h 16mn
Bit rate mode : Variable
Bit rate : Unknown / 255 Kbps
Channel count : 1 channel
Channel positions : Front: C
Sampling rate : 48.0 KHz
Bit depth : 24 bits
Compression mode : Lossless / Lossy
Language : French
Default : No
Forced : No
Audio #3
ID : 4
Format : AC-3
Format/Info : Audio Coding 3
Mode extension : CM (complete main)
Format settings, Endianness : Big
Codec ID : A_AC3
Duration : 1h 16mn
Bit rate mode : Constant
Bit rate : 192 Kbps
Channel count : 1 channel
Channel positions : Front: C
Sampling rate : 48.0 KHz
Bit depth : 16 bits
Compression mode : Lossy
Stream size : 105 MiB (1%)
Title : комментарии
Language : English
Default : No
Forced : No
Text #1
ID : 5
Format : UTF-8
Codec ID : S_TEXT/UTF8
Codec ID/Info : UTF-8 Plain Text
Language : Russian
Default : No
Forced : No
Text #2
ID : 6
Format : UTF-8
Codec ID : S_TEXT/UTF8
Codec ID/Info : UTF-8 Plain Text
Language : English
Default : No
Forced : No
Menu
00:00:00.000 : en:Logos
00:00:32.741 : en:Preface/Opening credits
00:02:27.981 : en:Such deeds
00:07:06.467 : en:A visit to Mother
00:12:02.972 : en:In the metro
00:19:24.371 : en:A friend awaits
00:24:51.781 : en:"Come quickly"
00:29:41.613 : en:Bank robbery
00:32:59.602 : en:'The Prince of Pickpockets'
00:39:33.579 : en:A solo trick
00:45:35.941 : en:Working the train station
00:50:21.184 : en:Neither fleeing nor hiding
00:57:18.852 : en:"Do you think I'm a thief?"
01:00:35.548 : en:Escape from Paris
01:03:51.994 : en:Jeanne needs help
01:07:48.022 : en:At the racetrack
01:10:38.609 : en:Behind bars

Скриншоты




Показать сообщения:    

Текущее время: 10-Дек 13:51

Часовой пояс: UTC + 3


Вы не можете начинать темы
Вы не можете отвечать на сообщения
Вы не можете редактировать свои сообщения
Вы не можете удалять свои сообщения
Вы не можете голосовать в опросах
Вы не можете прикреплять файлы к сообщениям
Вы не можете скачивать файлы