Отчаяние / Despair / Eine Reise ins Licht (Райнер Вернер Фассбиндер / Rainer Werner Fassbinder) [1978, Германия (ФРГ), Франция, драма, BDRemux 1080p] 2x DVO + Original Eng + Sub Eng


 

[Цитировать]

Отчаяние / Despair- Год выпуска: 1978
Страна: Германия (ФРГ), Франция
Жанр: драма
Продолжительность: 02:01:14
Перевод: Профессиональный (двухголосый закадровый)
Перевод 2: Профессиональный (двухголосый закадровый) СВ-Дубль
Оригинальная аудиодорожка: Английская
Cубтитры: Английские (depositio)-Режиссер: Райнер Вернер Фассбиндер / Rainer Werner Fassbinder
В ролях: Дирк Богард, Андреа Ферреоль, Клаус Лёвич, Фолькер Шпенглер, Армин Майер, Петер Керн, Адриан Ховен, Александр Аллерсон, Харк Бом, Рогер Фриц-Описание:
По одноименному роману Владимира Набокова.
Герман, русский эмигрант, владеет в Берлине начала 30-х годов небольшой шоколадной фабрикой. Он женат на Лидии, чуть глуповатой толстушке, а та поддерживает отношения со своим кузеном Ардалионом, вечно пьяным художником, у которого никогда не бывает денег. Герману кажется, что за ним наблюдает двойник, который преследует его на каждом шагу, особенно когда он занимается любовью со своей женой. Однажды он знакомится с безработным актером Феликсом Вебером, которого принимает за своего двойника, и пытается навязать тому свой план: они должы поменяться ролями.-За дорожку №1 спасибо MinimalBoy.
| IMDb | Сэмпл-Качество: BDRemux 1080p (Despair 1978 1080p US Blu-ray AVC DTS-HD MA 2.0, thx insinuendo)
Контейнер: MKV
Видео: AVC, 1920x1080 (1.65:1), 23.976 fps, 24993 kbps
Аудио 1: Русский AС3, 2.0, 48 kHz, 192 kbps – ?
Аудио 2: Русский AС3, 2.0, 48 kHz, 192 kbps – СВ-Дубль
Аудио 3: Английский DTS-HD MA 2.0, 48 kHz, 1687 kbps, 16-bit (DTS Core: 2.0, 48 kHz, 1509 kbps, 16-bit)
Формат субтитров: softsub (SRT)

Скриншоты

US vs GER



-

MI

General
Unique ID : 210515618242681776780417009344783779043 (0x9E5FD552B8A8D6EABD4E44681A8B04E3)
Complete name : Despair.1978.1080p.Remux.mkv
Format : Matroska
Format version : Version 2
File size : 22.9 GiB
Duration : 2h 1mn
Overall bit rate mode : Variable
Overall bit rate : 27.1 Mbps
Movie name : Despair / Отчаяние (1978) – RuTracker
Encoded date : UTC 2014-07-23 14:54:30
Writing application : mkvmerge v7.0.0 ('Where We Going') 64bit built on Jun 9 2014 15:16:27
Writing library : libebml v1.3.0 + libmatroska v1.4.1
Attachment : Yes
Video
ID : 1
Format : AVC
Format/Info : Advanced Video Codec
Format profile : High@L4.1
Format settings, CABAC : Yes
Format settings, ReFrames : 4 frames
Codec ID : V_MPEG4/ISO/AVC
Duration : 2h 1mn
Bit rate mode : Variable
Maximum bit rate : 35.0 Mbps
Width : 1 920 pixels
Height : 1 080 pixels
Display aspect ratio : 16:9
Frame rate mode : Constant
Frame rate : 23.976 fps
Standard : NTSC
Color space : YUV
Chroma subsampling : 4:2:0
Bit depth : 8 bits
Scan type : Progressive
Title : Despair 1978 1080p US Blu-ray AVC DTS-HD MA 2.0-insinuendo
Language : English
Default : Yes
Forced : No
Color primaries : BT.709
Transfer characteristics : BT.709
Matrix coefficients : BT.709
Audio #1
ID : 2
Format : AC-3
Format/Info : Audio Coding 3
Mode extension : CM (complete main)
Format settings, Endianness : Big
Codec ID : A_AC3
Duration : 2h 1mn
Bit rate mode : Constant
Bit rate : 192 Kbps
Channel(s) : 2 channels
Channel positions : Front: L R
Sampling rate : 48.0 KHz
Bit depth : 16 bits
Compression mode : Lossy
Stream size : 166 MiB (1%)
Title : DVO
Language : Russian
Default : Yes
Forced : No
Audio #2
ID : 3
Format : AC-3
Format/Info : Audio Coding 3
Mode extension : CM (complete main)
Format settings, Endianness : Big
Codec ID : A_AC3
Duration : 2h 1mn
Bit rate mode : Constant
Bit rate : 192 Kbps
Channel(s) : 2 channels
Channel positions : Front: L R
Sampling rate : 48.0 KHz
Bit depth : 16 bits
Compression mode : Lossy
Stream size : 166 MiB (1%)
Title : DVO – СВ-Дубль
Language : Russian
Default : No
Forced : No
Audio #3
ID : 4
Format : DTS
Format/Info : Digital Theater Systems
Format profile : MA / Core
Mode : 16
Format settings, Endianness : Big
Codec ID : A_DTS
Duration : 2h 1mn
Bit rate mode : Variable
Bit rate : Unknown / 1 509 Kbps
Channel(s) : 2 channels
Channel positions : Front: L R
Sampling rate : 48.0 KHz
Bit depth : 16 bits
Compression mode : Lossless / Lossy
Title : Original
Language : English
Default : No
Forced : No
Text
ID : 5
Format : UTF-8
Codec ID : S_TEXT/UTF8
Codec ID/Info : UTF-8 Plain Text
Title : depositio
Language : English
Default : No
Forced : No
Menu
00:00:00.000 : en:1. Opening
00:08:41.521 : en:2. The Chocolate Factory
00:32:05.006 : en:3. Doppelganger
00:45:10.499 : en:4. The Plan
01:04:33.536 : en:5. The Painting
01:19:08.994 : en:6. Brothers
01:36:14.769 : en:7. Confusion
01:45:05.424 : en:8. A Fugitive



Показать сообщения:    

Текущее время: 09-Дек 22:26

Часовой пояс: UTC + 3


Вы не можете начинать темы
Вы не можете отвечать на сообщения
Вы не можете редактировать свои сообщения
Вы не можете удалять свои сообщения
Вы не можете голосовать в опросах
Вы не можете прикреплять файлы к сообщениям
Вы не можете скачивать файлы