Ида / Ida (Павел Павликовский / Pawel Pawlikowski) [2013, Польша, Дания, драма, BDRip 720p] DVO (Pashaup, ИриСка) + VO (R.A.I.M.) + Sub Rus, Eng + Original Pol


 

[Цитировать]

Ида / Ida
Страна: Польша, Дания
Студия: Canal+ Polska, City of Lodz и др.
Жанр: драма
Год выпуска: 2013
Продолжительность: 01:21:49
Перевод: Любительский (двухголосый закадровый) Pashaup, ИриСка
Перевод 2: Одноголосый закадровый R.A.I.M.
Cубтитры: русские(daft-digger, MPil), английские
Оригинальная аудиодорожка: польский
Режиссер: Павел Павликовский / Pawel Pawlikowski
В ролях: Агата Кулеша, Агата Тшебуховска, Давид Огродник, Иоанна Кулиг, Ежи Треля, Адам Шишковский, Халина Скочиньска, Ян Порадовский, Мариуш Якус, Артур Маевский
Описание: Сирота Анна провела детство и юность в польском монастыре. Прежде чем принять обет и стать монахиней, девушка решает встретиться со своей единственной родственницей — Вандой. От неё Анна узнаёт, что она еврейка и что её родители стали жертвами холокоста. Вдвоём они отправляются в путешествие для того, чтобы точно выяснить трагическую судьбу их семьи. В пути они столкнутся с обстоятельствами, которые поставят под сомнение их веру, и хотя женщины попытаются жить как прежде, лишь одной из них это удастся...

Sample
Тип релиза: BDRip 720p - Don
Контейнер: MKV
Видео: MPEG4 AVC Video, H264, 4:3, 960x720, 24 fps, 8133 Kbps
Аудио: Russian (AC3, 2 ch, 192 kbps, 16 bits, 48.0 KHz) - DVO Pashaup, ИриСка
Аудио 2: Russian (AC3, 2 ch, 192 kbps, 16 bits, 48.0 KHz) - VO R.A.I.M.
Аудио 3: Polish (AC3, 6 ch, 640 kbps, 16 bits, 48.0 KHz) - оригинал
Формат субтитров: softsub (SRT)

MediaInfo

General
Unique ID : 230375985249752226434909628600037605662 (0xAD50CD043EAD50A281FC2F41978F011E)
Complete name : E:\1\ида\Ида 2013 BDRip 720p-DON.mkv
Format : Matroska
Format version : Version 4 / Version 2
File size : 5.34 GiB
Duration : 1h 21mn
Overall bit rate : 9 343 Kbps
Encoded date : UTC 2014-07-22 13:28:51
Writing application : mkvmerge v6.1.0 ('Old Devil') built on Mar 2 2013 14:32:37
Writing library : libebml v1.3.0 + libmatroska v1.4.0
Video
ID : 1
Format : AVC
Format/Info : Advanced Video Codec
Format profile : High@L4.1
Format settings, CABAC : Yes
Format settings, ReFrames : 12 frames
Codec ID : V_MPEG4/ISO/AVC
Duration : 1h 21mn
Bit rate : 8 133 Kbps
Width : 960 pixels
Height : 720 pixels
Display aspect ratio : 4:3
Frame rate mode : Constant
Frame rate : 24.000 fps
Color space : YUV
Chroma subsampling : 4:2:0
Bit depth : 8 bits
Scan type : Progressive
Bits/(Pixel*Frame) : 0.490
Stream size : 4.65 GiB (87%)
Writing library : x264 core 142 r2409+42 04be48a tMod [8-bit@all X86_64]
Encoding settings : cabac=1 / ref=12 / deblock=1:-3:-3 / analyse=0x3:0x133 / me=esa / subme=10 / psy=1 / fade_compensate=0.00 / psy_rd=1.10:0.00 / mixed_ref=1 / me_range=32 / chroma_me=1 / trellis=2 / 8x8dct=1 / cqm=0 / deadzone=21,11 / fast_pskip=0 / chroma_qp_offset=-2 / threads=12 / lookahead_threads=3 / sliced_threads=0 / nr=0 / decimate=1 / interlaced=0 / bluray_compat=0 / constrained_intra=0 / fgo=0 / bframes=11 / b_pyramid=2 / b_adapt=2 / b_bias=0 / direct=3 / weightb=1 / open_gop=0 / weightp=2 / keyint=241 / keyint_min=24 / scenecut=40 / intra_refresh=0 / rc_lookahead=60 / rc=crf / mbtree=0 / crf=17.2000 / qcomp=0.60 / qpmin=0:0:0 / qpmax=69:69:69 / qpstep=4 / vbv_maxrate=50000 / vbv_bufsize=62500 / crf_max=0.0 / nal_hrd=none / filler=0 / ip_ratio=1.30 / pb_ratio=1.20 / aq=4:0.80 / aq-sensitivity=10.00 / aq-factor=1.00:1.00:1.00 / aq2=0 / aq3=0 / zones=112304,117830,q=26
Language : English
Default : Yes
Forced : No
Audio #1
ID : 2
Format : AC-3
Format/Info : Audio Coding 3
Mode extension : CM (complete main)
Format settings, Endianness : Big
Codec ID : A_AC3
Duration : 1h 21mn
Bit rate mode : Constant
Bit rate : 192 Kbps
Channel count : 2 channels
Channel positions : Front: L R
Sampling rate : 48.0 KHz
Bit depth : 16 bits
Compression mode : Lossy
Stream size : 112 MiB (2%)
Title : DVO Pashaup, ИриСка
Language : Russian
Default : Yes
Forced : No
Audio #2
ID : 3
Format : AC-3
Format/Info : Audio Coding 3
Mode extension : CM (complete main)
Format settings, Endianness : Big
Codec ID : A_AC3
Duration : 1h 21mn
Bit rate mode : Constant
Bit rate : 192 Kbps
Channel count : 2 channels
Channel positions : Front: L R
Sampling rate : 48.0 KHz
Bit depth : 16 bits
Compression mode : Lossy
Stream size : 112 MiB (2%)
Title : VO R.A.I.M.
Language : Russian
Default : No
Forced : No
Audio #3
ID : 4
Format : AC-3
Format/Info : Audio Coding 3
Mode extension : CM (complete main)
Format settings, Endianness : Big
Codec ID : A_AC3
Duration : 1h 21mn
Bit rate mode : Constant
Bit rate : 640 Kbps
Channel count : 6 channels
Channel positions : Front: L C R, Side: L R, LFE
Sampling rate : 48.0 KHz
Bit depth : 16 bits
Compression mode : Lossy
Stream size : 375 MiB (7%)
Language : Polish
Default : No
Forced : No
Text #1
ID : 5
Format : UTF-8
Codec ID : S_TEXT/UTF8
Codec ID/Info : UTF-8 Plain Text
Title : daft-digger
Language : Russian
Default : No
Forced : No
Text #2
ID : 6
Format : UTF-8
Codec ID : S_TEXT/UTF8
Codec ID/Info : UTF-8 Plain Text
Title : MPil
Language : Russian
Default : No
Forced : No
Text #3
ID : 7
Format : UTF-8
Codec ID : S_TEXT/UTF8
Codec ID/Info : UTF-8 Plain Text
Language : English
Default : No
Forced : No
Menu
00:00:00.000 : :00:00:00.000
00:09:26.625 : :00:09:26.625
00:23:10.208 : :00:23:10.208
00:28:21.042 : :00:28:21.042
00:38:16.417 : :00:38:16.417
00:48:07.750 : :00:48:07.750
00:57:21.208 : :00:57:21.208
01:06:54.375 : :01:06:54.375
01:15:40.250 : :01:15:40.250

Source vs Encode

Source | Encode

Скриншоты




Показать сообщения:    

Текущее время: 05-Дек 21:35

Часовой пояс: UTC + 3


Вы не можете начинать темы
Вы не можете отвечать на сообщения
Вы не можете редактировать свои сообщения
Вы не можете удалять свои сообщения
Вы не можете голосовать в опросах
Вы не можете прикреплять файлы к сообщениям
Вы не можете скачивать файлы