Одиночки / Samotáři / Samotari (Давид Ондричек / David Ondricek) [2000, Чехия, Словакия, трагикомедия, HDTVRip 720p] + Sub (Rus, Pol, Eng, Fre, Ger) + Original Cze


 

[Цитировать]

Одиночки / Samotáři
Страна: Чехия, Словакия
Студия: Lucky Man Films
Жанр: трагикомедия
Год выпуска: 2000
Продолжительность: 01:44:41
Перевод: Субтитры (перевод assombre, fenixclub)
Cубтитры: русские, польские, английские, французские, немецкие
Оригинальная аудиодорожка: чешский
Режиссер: Давид Ондричек / David Ondricek
В ролях: Йитка Шнейдерова (Jitka Schneiderova), Саша Расилов (Sasa Rasilov), Лабина Митевска (Labina Mitevska), Иван Троян (Ivan Trojan), Иржи Махачек (Jiri Machacek), Микулаш Крен (Mikulas Kren) и др.
Описание: Современная картина, которая стремится ответить на вопросы - Возможна ли настоящая любовь в современном мире? Умеем ли мы все еще любить? Есть ли у нас еще шанс? Или современный мир слишком сложен и многочисленные препятствия не позволяют нам найти свою любовь? Если нет, то какой у нас есть выбор?
Семь молодых людей в возрасте от 23 до 33 лет к концу девяностых лет в большом городе пытаются практиковать нечто, о чем когда-то говорилось любовные отношения.
Они хотят сделать свою жизнь проще, а она оказывается сложней. Почти все из них делают попытки завязать «серьезные» отношения, которые оборачиваются конфликтами и ведут к разочарованию, а герои опять оказываются в одиночестве.
Но при этом, одиночество еще не означает пустоту души. Это оказывается каким-то новым качеством.

Доп. информация:


Тип релиза: HDTVRip 720p (thnx DON) | sample
Контейнер: MKV
Видео: H.264/AVC, 1280x690, 1.85:1, 25.00fps, 8000 Kbps
Аудио: Czech, DD 5.1, 48 kHz, 448 Kbps
Формат субтитров: softsub (SRT)

MI

Complete name                            : Samotari.2000.720p.HDTV.x264-DON.mkv
Format                                   : Matroska
Format version                           : Version 4 / Version 2
File size                                : 6.17 GiB
Duration                                 : 1h 44mn
Overall bit rate                         : 8 438 Kbps
Movie name                               : Samotáři (2000)
Encoded date                             : UTC 2014-07-21 13:27:16
Writing application                      : mkvmerge v7.0.0 ('Where We Going') 32bit built on Jun  9 2014 15:08:34
Writing library                          : libebml v1.3.0 + libmatroska v1.4.1
_STATISTICS_WRITING_APP                  : mkvmerge v7.0.0 ('Where We Going') 32bit built on Jun  9 2014 15:08:34
_STATISTICS_WRITING_DATE_UTC             : 2014-07-21 13:27:16
_STATISTICS_TAGS                         : BPS DURATION NUMBER_OF_FRAMES NUMBER_OF_BYTES
DURATION                                 : 01:40:29.200000000
NUMBER_OF_FRAMES                         : 890
NUMBER_OF_BYTES                          : 65685
Video
ID                                       : 1
Format                                   : AVC
Format/Info                              : Advanced Video Codec
Format profile                           : High@L4.1
Format settings, CABAC                   : Yes
Format settings, ReFrames                : 9 frames
Codec ID                                 : V_MPEG4/ISO/AVC
Duration                                 : 1h 44mn
Bit rate                                 : 8 000 Kbps
Width                                    : 1 280 pixels
Height                                   : 690 pixels
Display aspect ratio                     : 1.85:1
Frame rate mode                          : Constant
Frame rate                               : 25.000 fps
Color space                              : YUV
Chroma subsampling                       : 4:2:0
Bit depth                                : 8 bits
Scan type                                : Progressive
Bits/(Pixel*Frame)                       : 0.362
Stream size                              : 5.72 GiB (93%)
Writing library                          : x264 core 120 r2120 0c7dab9
Encoding settings                        : cabac=1 / ref=9 / deblock=1:-3:-3 / analyse=0x3:0x133 / me=umh / subme=10 / psy=1 / psy_rd=1.15:0.15 / mixed_ref=1 / me_range=32 / chroma_me=1 / trellis=2 / 8x8dct=1 / cqm=0 / deadzone=21,11 / fast_pskip=0 / chroma_qp_offset=-3 / threads=12 / sliced_threads=0 / nr=0 / decimate=0 / interlaced=0 / bluray_compat=0 / constrained_intra=0 / bframes=6 / b_pyramid=2 / b_adapt=2 / b_bias=0 / direct=3 / weightb=1 / open_gop=0 / weightp=2 / keyint=250 / keyint_min=25 / scenecut=40 / intra_refresh=0 / rc_lookahead=60 / rc=2pass / mbtree=1 / bitrate=8000 / ratetol=1.0 / qcomp=0.75 / qpmin=0 / qpmax=69 / qpstep=4 / cplxblur=20.0 / qblur=0.5 / vbv_maxrate=50000 / vbv_bufsize=62500 / nal_hrd=none / ip_ratio=1.40 / aq=1:0.50
Language                                 : Czech
Default                                  : Yes
Forced                                   : No
Audio
ID                                       : 2
Format                                   : AC-3
Format/Info                              : Audio Coding 3
Mode extension                           : CM (complete main)
Format settings, Endianness              : Big
Codec ID                                 : A_AC3
Duration                                 : 1h 44mn
Bit rate mode                            : Constant
Bit rate                                 : 448 Kbps
Channel(s)                               : 6 channels
Channel positions                        : Front: L C R, Side: L R, LFE
Sampling rate                            : 48.0 KHz
Bit depth                                : 16 bits
Compression mode                         : Lossy
Stream size                              : 335 MiB (5%)
Language                                 : Czech
Default                                  : Yes
Forced                                   : No
Text #1
ID                                       : 3
Format                                   : UTF-8
Codec ID                                 : S_TEXT/UTF8
Codec ID/Info                            : UTF-8 Plain Text
Title                                    : assombre
Language                                 : Russian
Default                                  : Yes
Forced                                   : No
Text #2
ID                                       : 4
Format                                   : UTF-8
Codec ID                                 : S_TEXT/UTF8
Codec ID/Info                            : UTF-8 Plain Text
Language                                 : English
Default                                  : No
Forced                                   : No
Text #3
ID                                       : 5
Format                                   : UTF-8
Codec ID                                 : S_TEXT/UTF8
Codec ID/Info                            : UTF-8 Plain Text
Language                                 : French
Default                                  : No
Forced                                   : No
Text #4
ID                                       : 6
Format                                   : UTF-8
Codec ID                                 : S_TEXT/UTF8
Codec ID/Info                            : UTF-8 Plain Text
Language                                 : German
Default                                  : No
Forced                                   : No
Text #5
ID                                       : 7
Format                                   : UTF-8
Codec ID                                 : S_TEXT/UTF8
Codec ID/Info                            : UTF-8 Plain Text
Language                                 : Polish
Default                                  : No
Forced                                   : No

Скриншоты




Показать сообщения:    

Текущее время: 04-Дек 11:14

Часовой пояс: UTC + 3


Вы не можете начинать темы
Вы не можете отвечать на сообщения
Вы не можете редактировать свои сообщения
Вы не можете удалять свои сообщения
Вы не можете голосовать в опросах
Вы не можете прикреплять файлы к сообщениям
Вы не можете скачивать файлы