Замок / Das Schloss / Das Schloß (Михаэль Ханеке / Michael Haneke) [1997 г., Германия, Австрия, драма, BDRip 720p] DVO (R5) + AVO (Кузнецов) + Original Ger + Sub (Rus, Eng, Fre)


 

[Цитировать]

Замок / Das Schloss- Год выпуска: 1997
Страна: Германия, Австрия
Жанр: драма
Продолжительность: 02:10:10
Перевод: Профессиональный (двухголосый закадровый) Кино без границ
Перевод 2: Авторский (одноголосый закадровый) Сергей Кузнецов
Оригинальная аудиодорожка: Немецкая
Cубтитры: Русские (R5; Маргарита Кривченко), английские, франзузские-Режиссер: Михаэль Ханеке / Michael Haneke
В ролях: Ульрих Мюэ , Сюзанна Лотар, Франк Геринг, Феликс Эйтнер, Николаус Парила, Андре Эйсерман, Дёрте Лисевски, Инга Буш, Норберт Швайнтек, Ганс Дил, Биргит Унауер-Описание:
Экранизация романа Франца Кафки.
Господин К. приглашён Замком для проведения землемерных работ. Однако на месте он обнаруживает, что произошла путаница и землемер Замку не нужен. Главный герой прилагает усилия для проникновения в Замок, но его честное желание работать и делать всё как надо встречает сопротивление жителей Деревни. Бюрократизм и тоталитаризм непонятен К., но абсолютно понятен и логичен для жителей Деревни, которые не понимают его. Симпатию к господину К. испытывает лишь сын сапожника — Ханс Брунсвик, верящий, что у господина К. есть будущее в Деревне и Замке.- | IMDb | Сэмпл-Качество: BDRip 720p (PHOBOS) BDRemux 1080p
Контейнер: MKV
Видео: x264, 1280x688 (1.85:1), 23.976 fps, 5242 kbps
Аудио 1: Русский AС3, 2.0, 48 kHz, 192 kbps — R5
Аудио 2: Русский AС3, 2.0, 48 kHz, 192 kbps — Кузнецов
Аудио 3: Немецкий FLAC 2.0, 48 kHz, 521 kbps
Формат субтитров: softsub (SRT)

Скриншоты


MI

General
Unique ID : 227865663843201842802337819494003304110 (0xAB6D549D91F5FD99BB2E1973FCCCE6AE)
Complete name : The.Castle.1997.720p.BluRay.x264-PHOBOS.mkv
Format : Matroska
Format version : Version 2
File size : 5.59 GiB
Duration : 2h 10mn
Overall bit rate mode : Variable
Overall bit rate : 6 145 Kbps
Movie name : Das Schloß / Замок (1997)
Encoded date : UTC 2014-07-15 16:38:24
Writing application : mkvmerge v7.0.0 ('Where We Going') 64bit built on Jun 9 2014 15:16:27
Writing library : libebml v1.3.0 + libmatroska v1.4.1
Attachment : Yes
Video
ID : 1
Format : AVC
Format/Info : Advanced Video Codec
Format profile : High@L4.1
Format settings, CABAC : Yes
Format settings, ReFrames : 9 frames
Codec ID : V_MPEG4/ISO/AVC
Duration : 2h 10mn
Nominal bit rate : 5 242 Kbps
Width : 1 280 pixels
Height : 688 pixels
Display aspect ratio : 1.85:1
Frame rate mode : Constant
Frame rate : 23.976 fps
Color space : YUV
Chroma subsampling : 4:2:0
Bit depth : 8 bits
Scan type : Progressive
Bits/(Pixel*Frame) : 0.248
Title : The.Castle.1997.720p.BluRay.x264-PHOBOS
Writing library : x264 core 142 r2389M 956c8d8
Encoding settings : cabac=1 / ref=9 / deblock=1:0:0 / analyse=0x3:0x133 / me=umh / subme=10 / psy=1 / psy_rd=1.00:0.00 / mixed_ref=1 / me_range=24 / chroma_me=1 / trellis=2 / 8x8dct=1 / cqm=0 / deadzone=21,11 / fast_pskip=1 / chroma_qp_offset=-2 / threads=12 / lookahead_threads=2 / sliced_threads=0 / nr=0 / decimate=1 / interlaced=0 / bluray_compat=0 / constrained_intra=0 / bframes=8 / b_pyramid=2 / b_adapt=2 / b_bias=0 / direct=3 / weightb=1 / open_gop=0 / weightp=2 / keyint=250 / keyint_min=23 / scenecut=40 / intra_refresh=0 / rc_lookahead=60 / rc=2pass / mbtree=1 / bitrate=5242 / ratetol=1.0 / qcomp=0.60 / qpmin=0 / qpmax=69 / qpstep=4 / cplxblur=20.0 / qblur=0.5 / ip_ratio=1.40 / aq=1:1.00
Language : German
Default : Yes
Forced : No
Audio #1
ID : 2
Format : AC-3
Format/Info : Audio Coding 3
Mode extension : CM (complete main)
Format settings, Endianness : Big
Codec ID : A_AC3
Duration : 2h 10mn
Bit rate mode : Constant
Bit rate : 192 Kbps
Channel(s) : 2 channels
Channel positions : Front: L R
Sampling rate : 48.0 KHz
Bit depth : 16 bits
Compression mode : Lossy
Stream size : 179 MiB (3%)
Title : DVO – Кино без границ
Language : Russian
Default : Yes
Forced : No
Audio #2
ID : 3
Format : AC-3
Format/Info : Audio Coding 3
Mode extension : CM (complete main)
Format settings, Endianness : Big
Codec ID : A_AC3
Duration : 2h 10mn
Bit rate mode : Constant
Bit rate : 192 Kbps
Channel(s) : 2 channels
Channel positions : Front: L R
Sampling rate : 48.0 KHz
Bit depth : 16 bits
Compression mode : Lossy
Stream size : 179 MiB (3%)
Title : AVO – С. Кузнецов
Language : Russian
Default : No
Forced : No
Audio #3
ID : 4
Format : FLAC
Format/Info : Free Lossless Audio Codec
Codec ID : A_FLAC
Duration : 2h 10mn
Bit rate mode : Variable
Channel(s) : 2 channels
Sampling rate : 48.0 KHz
Bit depth : 16 bits
Title : Original
Writing library : libFLAC 1.2.1 (UTC 2007-09-17)
Language : German
Default : No
Forced : No
Text #1
ID : 5
Format : UTF-8
Codec ID : S_TEXT/UTF8
Codec ID/Info : UTF-8 Plain Text
Title : R5
Language : Russian
Default : No
Forced : No
Text #2
ID : 6
Format : UTF-8
Codec ID : S_TEXT/UTF8
Codec ID/Info : UTF-8 Plain Text
Title : Маргарита Кривченко
Language : Russian
Default : No
Forced : No
Text #3
ID : 7
Format : UTF-8
Codec ID : S_TEXT/UTF8
Codec ID/Info : UTF-8 Plain Text
Language : English
Default : No
Forced : No
Text #4
ID : 8
Format : UTF-8
Codec ID : S_TEXT/UTF8
Codec ID/Info : UTF-8 Plain Text
Language : French
Default : No
Forced : No
Menu
00:00:00.000 : en:Chapter 01
00:09:05.795 : en:Chapter 02
00:20:55.212 : en:Chapter 03
00:28:18.405 : en:Chapter 04
00:34:51.047 : en:Chapter 05
00:47:48.073 : en:Chapter 06
00:53:33.043 : en:Chapter 07
01:01:02.241 : en:Chapter 08
01:08:22.056 : en:Chapter 09
01:13:46.964 : en:Chapter 10
01:19:13.623 : en:Chapter 11
01:22:56.388 : en:Chapter 12
01:29:51.803 : en:Chapter 13
01:33:31.105 : en:Chapter 14
01:47:00.414 : en:Chapter 15
01:58:38.611 : en:Chapter 16
02:06:25.911 : en:Chapter 17



Показать сообщения:    

Текущее время: 10-Дек 23:32

Часовой пояс: UTC + 3


Вы не можете начинать темы
Вы не можете отвечать на сообщения
Вы не можете редактировать свои сообщения
Вы не можете удалять свои сообщения
Вы не можете голосовать в опросах
Вы не можете прикреплять файлы к сообщениям
Вы не можете скачивать файлы