Замок / Das Schloss / Das Schloß (Михаэль Ханеке / Michael Haneke) [1997 г., Германия, Австрия, драма, BDRemux 1080p] DVO (R5) + AVO (Кузнецов) + Original Ger + Sub (Rus, Eng)


 

[Цитировать]

Замок / Das Schloss- Год выпуска: 1997
Страна: Германия, Австрия
Жанр: драма
Продолжительность: 02:10:10
Перевод: Профессиональный (двухголосый закадровый) Кино без границ
Перевод 2: Авторский (одноголосый закадровый) Сергей Кузнецов
Оригинальная аудиодорожка: Немецкая
Cубтитры: Русские (R5; Маргарита Кривченко), английские-Режиссер: Михаэль Ханеке / Michael Haneke
В ролях: Ульрих Мюэ , Сюзанна Лотар, Франк Геринг, Феликс Эйтнер, Николаус Парила, Андре Эйсерман, Дёрте Лисевски, Инга Буш, Норберт Швайнтек, Ганс Дил, Биргит Унауер-Описание:
Экранизация романа Франца Кафки.
Господин К. приглашён Замком для проведения землемерных работ. Однако на месте он обнаруживает, что произошла путаница и землемер Замку не нужен. Главный герой прилагает усилия для проникновения в Замок, но его честное желание работать и делать всё как надо встречает сопротивление жителей Деревни. Бюрократизм и тоталитаризм непонятен К., но абсолютно понятен и логичен для жителей Деревни, которые не понимают его. Симпатию к господину К. испытывает лишь сын сапожника — Ханс Брунсвик, верящий, что у господина К. есть будущее в Деревне и Замке.-За R5 спасибо lankano, за Кузнецова спасибо gera.
| IMDb | Сэмпл-Качество: BDRemux 1080p (Das Schloß 1997 1080p FRE Blu-ray AVC DTS-HD MA 2.0, thx Ardilaun)
Контейнер: MKV
Видео: AVC, 1920x1080 (1.85:1), 23.976 fps, 29969 kbps
Аудио 1: Русский AС3, 2.0, 48 kHz, 192 kbps — R5
Аудио 2: Русский AС3, 2.0, 48 kHz, 192 kbps — Кузнецов
Аудио 3: Немецкий DTS-HD MA 2.0, 48 kHz, 978 kbps, 16-bit (DTS Core: 2.0, 48 kHz, 768 kbps, 16-bit)
Формат субтитров: softsub (SRT)

Скриншоты


MI

General
Unique ID : 204721279585411617784799727758823831021 (0x9A03E25EE8746BE889180B246A96B5ED)
Complete name : Das.Schloß.1997.1080p.Remux.mkv
Format : Matroska
Format version : Version 2
File size : 28.5 GiB
Duration : 2h 10mn
Overall bit rate mode : Variable
Overall bit rate : 31.3 Mbps
Movie name : Das Schloß / Замок (1997)
Encoded date : UTC 2014-07-15 15:01:51
Writing application : mkvmerge v7.0.0 ('Where We Going') 64bit built on Jun 9 2014 15:16:27
Writing library : libebml v1.3.0 + libmatroska v1.4.1
Attachment : Yes
Video
ID : 1
Format : AVC
Format/Info : Advanced Video Codec
Format profile : High@L4.1
Format settings, CABAC : Yes
Format settings, ReFrames : 2 frames
Codec ID : V_MPEG4/ISO/AVC
Duration : 2h 10mn
Bit rate mode : Variable
Width : 1 920 pixels
Height : 1 080 pixels
Display aspect ratio : 16:9
Frame rate mode : Constant
Frame rate : 23.976 fps
Color space : YUV
Chroma subsampling : 4:2:0
Bit depth : 8 bits
Scan type : Progressive
Title : Das Schloß 1997 1080p FRE Blu-ray AVC DTS-HD MA 2.0
Language : German
Default : Yes
Forced : No
Audio #1
ID : 2
Format : AC-3
Format/Info : Audio Coding 3
Mode extension : CM (complete main)
Format settings, Endianness : Big
Codec ID : A_AC3
Duration : 2h 10mn
Bit rate mode : Constant
Bit rate : 192 Kbps
Channel(s) : 2 channels
Channel positions : Front: L R
Sampling rate : 48.0 KHz
Bit depth : 16 bits
Compression mode : Lossy
Stream size : 179 MiB (1%)
Title : DVO – Кино без границ
Language : Russian
Default : Yes
Forced : No
Audio #2
ID : 3
Format : AC-3
Format/Info : Audio Coding 3
Mode extension : CM (complete main)
Format settings, Endianness : Big
Codec ID : A_AC3
Duration : 2h 10mn
Bit rate mode : Constant
Bit rate : 192 Kbps
Channel(s) : 2 channels
Channel positions : Front: L R
Sampling rate : 48.0 KHz
Bit depth : 16 bits
Compression mode : Lossy
Stream size : 179 MiB (1%)
Title : AVO – С. Кузнецов
Language : Russian
Default : No
Forced : No
Audio #3
ID : 4
Format : DTS
Format/Info : Digital Theater Systems
Format profile : MA / Core
Mode : 16
Format settings, Endianness : Big
Codec ID : A_DTS
Duration : 2h 10mn
Bit rate mode : Variable
Bit rate : Unknown / 768 Kbps
Channel(s) : 2 channels
Channel positions : Front: L R
Sampling rate : 48.0 KHz
Bit depth : 16 bits
Compression mode : Lossless / Lossy
Title : Original
Language : German
Default : No
Forced : No
Text #1
ID : 5
Format : UTF-8
Codec ID : S_TEXT/UTF8
Codec ID/Info : UTF-8 Plain Text
Title : R5
Language : Russian
Default : No
Forced : No
Text #2
ID : 6
Format : UTF-8
Codec ID : S_TEXT/UTF8
Codec ID/Info : UTF-8 Plain Text
Title : Маргарита Кривченко
Language : Russian
Default : No
Forced : No
Text #3
ID : 7
Format : UTF-8
Codec ID : S_TEXT/UTF8
Codec ID/Info : UTF-8 Plain Text
Language : English
Default : No
Forced : No
Menu
00:00:00.000 : en:Chapter 01
00:09:05.795 : en:Chapter 02
00:20:55.212 : en:Chapter 03
00:28:18.405 : en:Chapter 04
00:34:51.047 : en:Chapter 05
00:47:48.073 : en:Chapter 06
00:53:33.043 : en:Chapter 07
01:01:02.241 : en:Chapter 08
01:08:22.056 : en:Chapter 09
01:13:46.964 : en:Chapter 10
01:19:13.623 : en:Chapter 11
01:22:56.388 : en:Chapter 12
01:29:51.803 : en:Chapter 13
01:33:31.105 : en:Chapter 14
01:47:00.414 : en:Chapter 15
01:58:38.611 : en:Chapter 16
02:06:25.911 : en:Chapter 17



Показать сообщения:    

Текущее время: 04-Дек 21:21

Часовой пояс: UTC + 3


Вы не можете начинать темы
Вы не можете отвечать на сообщения
Вы не можете редактировать свои сообщения
Вы не можете удалять свои сообщения
Вы не можете голосовать в опросах
Вы не можете прикреплять файлы к сообщениям
Вы не можете скачивать файлы