На хуторе у леса / Na samote u lesa (Иржи Менцель / Jiřĺ Menzel) [1976, Чехословакия, комедия, драма, HDTVRip 720p] AVO (Алексеев) + Sub Eng + Original Cze


 

[Цитировать]

На хуторе у леса / Na samotě u lesa
Страна: Чехословакия
Студия: Barrandov
Жанр: комедия, драма
Год выпуска: 1976
Продолжительность: 01:30:50
Перевод: Авторский (одноголосый закадровый) (А.Алексеев)
Cубтитры: английские
Оригинальная аудиодорожка: чешский
Режиссер: Иржи Менцель / Jiřĺ Menzel
В ролях: Йозеф Кемр, Даниэла Коларова, Зденек Сверак, Марта Градилкова, Мартин Градилек, Ладислав Смоляк, Ян Тришка, Надя Урбанкова, Зденек Блажек, Вацлав Трегл, Ольдржих Влах, Власта Елинкова
Описание: Семья из 4 человек вместе с детьми, решает покинуть Прагу и на лето купить дом в деревне. Они находят странного и забавного владельца дома на хуторе около леса и живут некоторое время у него. Картина о типичных чешских дачниках «На хуторе у леса», завоевала Менцелю ряд премий на зарубежных кинофестивалях. Фильм снят по сценарию Зденека Сверака и Ладислава Смоляка. Помимо участия в написании сценария Зденек сыграл Олдриша Лавичкова — добродушного отца семейства, а Ладислав Смоляк исполнил роль звонаря. Любо-дорого наблюдать за игрой всех актеров, их естественное поведение перед объективом камеры просто изумляет, создается впечатление, что ее и вовсе нет.
Доп.информация:


Тип релиза: HDTVRip 720p (thnx DON) | sample
Контейнер: MKV
Видео: H.264/AVC, 986x720, 1.37:1, 25.00fps, 5099kbps
Аудио: Russian, DD 2.0, 48 kHz, 192kbps
Аудио 2: Czech, DD 2.0, 48 kHz, 448kbps
Формат субтитров: softsub (SRT)

MI

Complete name                            : Na.samote.u.lesa.1976.720p.HDTV.rus.cze.mkv
Format                                   : Matroska
Format version                           : Version 4 / Version 2
File size                                : 3.72 GiB
Duration                                 : 1h 30mn
Overall bit rate                         : 5 855 Kbps
Movie name                               : Na samotě u lesa (1976)
Encoded date                             : UTC 2014-07-03 19:05:58
Writing application                      : mkvmerge v7.0.0 ('Where We Going') 32bit built on Jun  9 2014 15:08:34
Writing library                          : libebml v1.3.0 + libmatroska v1.4.1
DURATION                                 : 01:30:50.528000000
NUMBER_OF_FRAMES                         : 170329
NUMBER_OF_BYTES                          : 130812672
_STATISTICS_WRITING_APP                  : mkvmerge v7.0.0 ('Where We Going') 32bit built on Jun  9 2014 15:08:34
_STATISTICS_WRITING_DATE_UTC             : 2014-07-03 19:05:58
_STATISTICS_TAGS                         : BPS DURATION NUMBER_OF_FRAMES NUMBER_OF_BYTES
Video
ID                                       : 1
Format                                   : AVC
Format/Info                              : Advanced Video Codec
Format profile                           : High@L4.1
Format settings, CABAC                   : Yes
Format settings, ReFrames                : 11 frames
Codec ID                                 : V_MPEG4/ISO/AVC
Duration                                 : 1h 30mn
Bit rate                                 : 5 099 Kbps
Width                                    : 986 pixels
Height                                   : 720 pixels
Display aspect ratio                     : 4:3
Frame rate mode                          : Constant
Frame rate                               : 25.000 fps
Color space                              : YUV
Chroma subsampling                       : 4:2:0
Bit depth                                : 8 bits
Scan type                                : Progressive
Bits/(Pixel*Frame)                       : 0.287
Stream size                              : 3.24 GiB (87%)
Writing library                          : x264 core 142 r2431+42 c69a006 tMod [8-bit@all X86_64]
Encoding settings                        : cabac=1 / ref=11 / deblock=1:-3:-3 / analyse=0x3:0x133 / me=tesa / subme=10 / psy=1 / fade_compensate=0.00 / psy_rd=1.05:0.00 / mixed_ref=1 / me_range=24 / chroma_me=1 / trellis=2 / 8x8dct=1 / cqm=0 / deadzone=21,11 / fast_pskip=0 / chroma_qp_offset=-2 / threads=12 / lookahead_threads=2 / sliced_threads=0 / nr=0 / decimate=0 / interlaced=0 / bluray_compat=0 / constrained_intra=0 / fgo=0 / bframes=8 / b_pyramid=2 / b_adapt=2 / b_bias=0 / direct=3 / weightb=1 / open_gop=0 / weightp=2 / keyint=250 / keyint_min=25 / scenecut=40 / intra_refresh=0 / rc_lookahead=60 / rc=crf / mbtree=0 / crf=16.0000 / qcomp=0.65 / qpmin=0:0:0 / qpmax=69:69:69 / qpstep=4 / vbv_maxrate=62500 / vbv_bufsize=78125 / crf_max=0.0 / nal_hrd=none / filler=0 / ip_ratio=1.30 / pb_ratio=1.20 / aq=4:0.80 / aq-sensitivity=10.00 / aq-factor=1.00:1.00:1.00 / aq2=0 / aq3=0
Language                                 : Czech
Default                                  : Yes
Forced                                   : No
Audio #1
ID                                       : 2
Format                                   : AC-3
Format/Info                              : Audio Coding 3
Mode extension                           : CM (complete main)
Format settings, Endianness              : Big
Codec ID                                 : A_AC3
Duration                                 : 1h 30mn
Bit rate mode                            : Constant
Bit rate                                 : 192 Kbps
Channel(s)                               : 2 channels
Channel positions                        : Front: L R
Sampling rate                            : 48.0 KHz
Bit depth                                : 16 bits
Compression mode                         : Lossy
Stream size                              : 125 MiB (3%)
Title                                    : VO (А.Алексеев)
Language                                 : Russian
Default                                  : Yes
Forced                                   : No
Audio #2
ID                                       : 3
Format                                   : AC-3
Format/Info                              : Audio Coding 3
Mode extension                           : CM (complete main)
Format settings, Endianness              : Big
Codec ID                                 : A_AC3
Duration                                 : 1h 30mn
Bit rate mode                            : Constant
Bit rate                                 : 448 Kbps
Channel(s)                               : 2 channels
Channel positions                        : Front: L R
Sampling rate                            : 48.0 KHz
Bit depth                                : 16 bits
Compression mode                         : Lossy
Stream size                              : 291 MiB (8%)
Language                                 : Czech
Default                                  : No
Forced                                   : No
Text
ID                                       : 4
Format                                   : UTF-8
Codec ID                                 : S_TEXT/UTF8
Codec ID/Info                            : UTF-8 Plain Text
Language                                 : English
Default                                  : No
Forced                                   : No



Показать сообщения:    

Текущее время: 10-Дек 06:09

Часовой пояс: UTC + 3


Вы не можете начинать темы
Вы не можете отвечать на сообщения
Вы не можете редактировать свои сообщения
Вы не можете удалять свои сообщения
Вы не можете голосовать в опросах
Вы не можете прикреплять файлы к сообщениям
Вы не можете скачивать файлы