Великая красота / La grande bellezza / The Great Beauty (Паоло Соррентино / Paolo Sorrentino) [2013, Италия, Франция, драма, комедия, BDRip 720p] [Criterion Collection] MVO (R5) + Original (Ita) + Sub (rus, eng)


 

[Цитировать]

Великая красотаLa grande bellezza- Страна: Италия, Франция
Жанр: драма, комедия
Год выпуска: 2013
Продолжительность: 02:21:29-Перевод: Профессиональный (многоголосый, закадровый) R5
Субтитры: русские, английские
Оригинальная аудиодорожка: итальянский
Режиссер: Паоло Соррентино / Paolo Sorrentino
В ролях:
Тони Сервилло, Карло Вердоне, Сабрина Ферилли, Карло Буччироссо, Яя Форте, Памела Виллорези, Галатея Ранци, Франко Грациози, Джорджо Пазотти, Массимо Пополицио-Описание: Аристократки, нувориши, политики, преступники высокого полёта, журналисты, актёры, декаденствующие отпрыски благородных семейств, священники, художники, подлинные или мнимые интеллектуалы... Всех их поглощает современный Вавилон, пока они ткут канву непрочных взаимоотношений, предаваясь суетной жизни на фоне старинных дворцов, огромных вилл и великолепных террас. Все они здесь, и никто не предстаёт в выгодном свете.
Апатичный и разочарованный 65-летний Джеп Гамбарделла, писатель и журналист, не расстающийся со стаканом джина с тоником, наблюдает за этим парадом влиятельных, но пустых и потерянных людей, которые производят на него гнетущее впечатление. Головокружительная картина потери нравственных ориентиров разворачивается в атмосфере великолепного и безразличного римского лета. Вечный город подобен умершей диве.- -Качество: BDRip 720p | sample
Контейнер: MKV
Исходник: BDRemux 1080p
Видео: AVC, 1280x544 (2.35:1), 9500 kbps, 23,976 fps, 0,569 bpp
Аудио №1: русский / AC3 / 2.0 / 48 kHz / 192 kbps / 16 bit ||
Аудио №2: Italian / DTS / 5.1 / 48 kHz / 1510 kbps / 16 bit
Cубтитры: .srt
Навигация по главам: есть-

Скриншоты

Media Info

General
Unique ID : 225449355986315059935277090653371741406 (0xA99BF770B7BDB023AE503BA944E9B4DE)
Complete name : E:\BD\Великая.красота.BDRip.720p.by.Дядя_Лёша.mkv
Format : Matroska
Format version : Version 4 / Version 2
File size : 11.1 GiB
Duration : 2h 21mn
Overall bit rate : 11.2 Mbps
Encoded date : UTC 2014-07-03 16:14:00
Writing application : mkvmerge v7.0.0 ('Where We Going') 32bit built on Jun 9 2014 15:08:34
Writing library : libebml v1.3.0 + libmatroska v1.4.1
_STATISTICS_WRITING_APP : mkvmerge v7.0.0 ('Where We Going') 32bit built on Jun 9 2014 15:08:34
_STATISTICS_WRITING_DATE_UTC : 2014-07-03 16:14:00
_STATISTICS_TAGS : BPS DURATION NUMBER_OF_FRAMES NUMBER_OF_BYTES
DURATION : 02:21:29.110000000
NUMBER_OF_FRAMES : 795854
NUMBER_OF_BYTES : 1601258248
Attachment : Yes
Video
ID : 1
Format : AVC
Format/Info : Advanced Video Codec
Format profile : High@L4.1
Format settings, CABAC : Yes
Format settings, ReFrames : 5 frames
Codec ID : V_MPEG4/ISO/AVC
Duration : 2h 21mn
Bit rate : 9 500 Kbps
Width : 1 280 pixels
Height : 544 pixels
Display aspect ratio : 2.35:1
Frame rate mode : Constant
Frame rate : 23.976 fps
Color space : YUV
Chroma subsampling : 4:2:0
Bit depth : 8 bits
Scan type : Progressive
Bits/(Pixel*Frame) : 0.569
Stream size : 9.17 GiB (83%)
Writing library : x264 core 132 r2310 76a5c3a
Encoding settings : cabac=1 / ref=5 / deblock=1:-3:-3 / analyse=0x3:0x113 / me=umh / subme=10 / psy=1 / psy_rd=1.00:0.15 / mixed_ref=1 / me_range=48 / chroma_me=1 / trellis=2 / 8x8dct=1 / cqm=0 / deadzone=21,11 / fast_pskip=0 / chroma_qp_offset=-3 / threads=3 / lookahead_threads=1 / sliced_threads=0 / nr=0 / decimate=0 / interlaced=0 / bluray_compat=0 / constrained_intra=0 / bframes=7 / b_pyramid=2 / b_adapt=2 / b_bias=0 / direct=3 / weightb=1 / open_gop=0 / weightp=2 / keyint=240 / keyint_min=24 / scenecut=40 / intra_refresh=0 / rc_lookahead=60 / rc=2pass / mbtree=0 / bitrate=9500 / ratetol=1.0 / qcomp=0.65 / qpmin=0 / qpmax=69 / qpstep=4 / cplxblur=20.0 / qblur=0.5 / vbv_maxrate=40000 / vbv_bufsize=30000 / nal_hrd=none / ip_ratio=1.40 / pb_ratio=1.30 / aq=1:0.80
Default : Yes
Forced : No
Audio #1
ID : 2
Format : AC-3
Format/Info : Audio Coding 3
Mode extension : CM (complete main)
Format settings, Endianness : Big
Codec ID : A_AC3
Duration : 2h 21mn
Bit rate mode : Constant
Bit rate : 192 Kbps
Channel(s) : 2 channels
Channel positions : Front: L R
Sampling rate : 48.0 KHz
Bit depth : 16 bits
Compression mode : Lossy
Stream size : 194 MiB (2%)
Title : MVO
Language : Russian
Default : Yes
Forced : No
Audio #2
ID : 3
Format : DTS
Format/Info : Digital Theater Systems
Mode : 16
Format settings, Endianness : Big
Codec ID : A_DTS
Duration : 2h 21mn
Bit rate mode : Constant
Bit rate : 1 509 Kbps
Channel(s) : 6 channels
Channel positions : Front: L C R, Side: L R, LFE
Sampling rate : 48.0 KHz
Bit depth : 24 bits
Compression mode : Lossy
Stream size : 1.49 GiB (13%)
Title : Italian
Language : Italian
Default : No
Forced : No
Text #1
ID : 4
Format : UTF-8
Codec ID : S_TEXT/UTF8
Codec ID/Info : UTF-8 Plain Text
Title : RUSSIAN
Language : Russian
Default : No
Forced : No
Text #2
ID : 5
Format : UTF-8
Codec ID : S_TEXT/UTF8
Codec ID/Info : UTF-8 Plain Text
Title : ENGLISH
Language : English
Default : No
Forced : No
Menu
00:00:00.000 : :Opening Logos
00:01:21.664 : :"Our Journey Is Entirely Imaginary"
00:05:17.900 : :Four on the Floor, with Mariachi
00:09:43.124 : :"Happy Birthday, Jep! Happy Birthday, Rome"
00:14:37.710 : :Early Morning Return
00:20:08.290 : :Performance Art
00:21:39.298 : :An Interview with the Artist
00:25:23.855 : :"I Find Romans Unbearable"
00:31:15.707 : :Returns
00:34:22.143 : :A Visit from Elisa's Husband
00:41:36.202 : :"Have You Seen My Daughter"
00:43:01.370 : :Writing Projects
00:46:51.809 : :A Catalog of Lies and Fragility
00:54:18.880 : :A Strip Club
01:00:32.837 : :"Seven Hundred Euros"
01:03:49.659 : :Dinner with Ramona
01:10:52.623 : :Party with Knives
01:15:27.981 : :Carmelina's Work
01:18:21.905 : :The Princesses' Keys
01:23:22.580 : :Rules for a Funeral
01:26:25.889 : :The Funeral
01:29:53.679 : :"It Was Nice Not Making Love"
01:33:48.789 : :Romano's Decision
01:38:37.703 : :A Happy Couple
01:40:46.665 : :Party at Jep's
01:44:21.338 : :Photo Exhibition
01:46:26.046 : :Cardinal Bellucci
01:49:32.190 : :An Arrest, Then Lunch with Dadina
01:52:20.400 : :Audience with Sister Maria
01:56:52.839 : :Jep's Dinner for the Saint
02:02:28.924 : :The Saint Disappears
02:03:44.417 : :Flamingos
02:08:39.920 : :"There's Something I Want to Show You"
02:13:07.604 : :End Credits



Показать сообщения:    

Текущее время: 05-Дек 11:33

Часовой пояс: UTC + 3


Вы не можете начинать темы
Вы не можете отвечать на сообщения
Вы не можете редактировать свои сообщения
Вы не можете удалять свои сообщения
Вы не можете голосовать в опросах
Вы не можете прикреплять файлы к сообщениям
Вы не можете скачивать файлы