Время волков / Le Temps du loup / The Time of the Wolf (Михаэль Ханеке / Michael Haneke) [2003, Франция, Австрия, Германия, драма, BDRip 720p] DVO + Sub Eng + Original Fre


 

[Цитировать]

Время волков / Le Temps du loup / The Time of the Wolf
Страна: Франция, Австрия, Германия
Студия: arte France Cinéma, Bavaria Film, Canal+ и др.
Жанр: драма
Год выпуска: 2003
Продолжительность: 01:53:00
Перевод: Профессиональный (двухголосый закадровый) Екатеринбург Арт
Cубтитры: английские
Оригинальная аудиодорожка: французский
Режиссер: Михаэль Ханеке / Michael Haneke
В ролях: Изабель Юппер, Беатрис Даль, Патрис Шеро, Рона Хартнер, Морис Бенишу, Оливье Гурме, Брижит Роюан, Люка Биком, Хаким Талеб, Анаис Демустье
Описание: Когда Анна и ее семья приезжают в свой загородный дом, они обнаруживают, что там поселились чужаки. Муж получает пулю в лоб, а Анна с двумя детьми скитается по окрестностям, пока не набредает на заброшенную железнодорожную станцию. Здесь нашли прибежище множество беспомощных людей, таких же беженцев из ниоткуда в никуда, которые вынуждены сражаться с миром и друг с другом за кусок хлеба и глоток воды. Они охвачены отчаянием и алчностью, но время от времени все еще способны проявлять какие-то человеческие чувства. Цивилизации больше не существует, но люди продолжают надеяться на то, что кто-то окажет им помощь...

Sample
Тип релиза: BDRip 720p - SbR
Контейнер: MKV
Видео: MPEG4 AVC Video, H264, 16:9, 1280x546, 23.976 fps, 10.6 Mbps
Аудио: Russian (Dolby AC3, 2 ch, 192 kbps, 16 bits, 48.0 KHz) - DVO ЕА
Аудио 2: French (DTS, 6 ch, 1509 kbps, 24 bits, 48.0 KHz) - оригинал
Формат субтитров: softsub (SRT)

Le.temps.du.loup.2003.720p.BluRay.DTS.x264-SbR

Release info
RELEASE NAME..: Le emps du loup 2003 720p BluRay DTS x264-SbR
RELEASE SIZE..: 9.79 GiB
RUNTIME.......: 1h:53m:00s
VIDEO CODEC...: x264, crf, L4.1
FRAMERATE.....: 23.976 fps
BITRATE.......: 10895 Kbps
RESOLUTION....: 1280x546
AUDIO.........: French DTS 5.1 @ 1509 kbps
SUBTITLES.....: English
CHAPTER.......: Included
SOURCE........: Le temps du loup 2003 1080p Blu-ray AVC DTS-HD MA 5.1
RELEASE DATE..: 06.02.2014
ENCODER.......: Delia
SCREENS MIRROR: |someimage
x264log
x264 [info]: frame I:774 Avg QP:12.06 size:136434
x264 [info]: frame P:26819 Avg QP:13.81 size: 84441
x264 [info]: frame B:134972 Avg QP:14.80 size: 50857
x264 [info]: consecutive B-frames: 0.7% 0.7% 1.8% 10.8% 10.5% 36.9% 9.1% 11.8% 3.6% 1.9% 2.5% 7.0% 2.8%
x264 [info]: encoded 162565 frames, 2.17 fps, 10895.72 kb/s

MediaInfo

General
Unique ID : 202150202713928531643590163689693193432 (0x9814B67E74D21ECCB185A1C6398B24D8)
Complete name : E:\1\Le.temps.du.loup.2003.720p-SbR.mkv
Format : Matroska
Format version : Version 4 / Version 2
File size : 9.95 GiB
Duration : 1h 53mn
Overall bit rate : 12.6 Mbps
Encoded date : UTC 2014-06-26 10:38:28
Writing application : mkvmerge v6.1.0 ('Old Devil') built on Mar 2 2013 14:32:37
Writing library : libebml v1.3.0 + libmatroska v1.4.0
Video
ID : 1
Format : AVC
Format/Info : Advanced Video Codec
Format profile : High@L4.1
Format settings, CABAC : Yes
Format settings, ReFrames : 11 frames
Codec ID : V_MPEG4/ISO/AVC
Duration : 1h 53mn
Bit rate : 10.6 Mbps
Width : 1 280 pixels
Height : 546 pixels
Display aspect ratio : 2.35:1
Frame rate mode : Constant
Frame rate : 23.976 fps
Color space : YUV
Chroma subsampling : 4:2:0
Bit depth : 8 bits
Scan type : Progressive
Bits/(Pixel*Frame) : 0.635
Stream size : 8.40 GiB (85%)
Writing library : x264 core 142 r2389kMod 956c8d8
Encoding settings : cabac=1 / ref=11 / deblock=1:-3:-3 / analyse=0x3:0x133 / me=tesa / subme=11 / psy=1 / fade_compensate=0.00 / psy_rd=1.00:0.00 / mixed_ref=1 / me_range=24 / chroma_me=1 / trellis=2 / 8x8dct=1 / cqm=0 / deadzone=21,11 / fast_pskip=0 / chroma_qp_offset=-2 / threads=6 / lookahead_threads=1 / sliced_threads=0 / nr=0 / decimate=1 / interlaced=0 / bluray_compat=0 / constrained_intra=0 / fgo=0 / bframes=12 / b_pyramid=2 / b_adapt=2 / b_bias=0 / direct=3 / weightb=1 / open_gop=0 / weightp=2 / keyint=250 / keyint_min=23 / scenecut=40 / intra_refresh=0 / rc=crf / mbtree=0 / crf=15.0000 / qcomp=0.70 / qpmin=0 / qpmax=69 / qpstep=4 / ip_ratio=1.30 / pb_ratio=1.20 / aq=1:0.80
Language : English
Default : Yes
Forced : No
Matrix coefficients : BT.709
Audio #1
ID : 2
Format : AC-3
Format/Info : Audio Coding 3
Mode extension : CM (complete main)
Format settings, Endianness : Big
Codec ID : A_AC3
Duration : 1h 53mn
Bit rate mode : Constant
Bit rate : 192 Kbps
Channel count : 2 channels
Channel positions : Front: L R
Sampling rate : 48.0 KHz
Bit depth : 16 bits
Compression mode : Lossy
Stream size : 155 MiB (2%)
Title : EA
Language : Russian
Default : Yes
Forced : No
Audio #2
ID : 3
Format : DTS
Format/Info : Digital Theater Systems
Mode : 16
Format settings, Endianness : Big
Codec ID : A_DTS
Duration : 1h 53mn
Bit rate mode : Constant
Bit rate : 1 509 Kbps
Channel count : 6 channels
Channel positions : Front: L C R, Side: L R, LFE
Sampling rate : 48.0 KHz
Bit depth : 16 bits
Compression mode : Lossy
Stream size : 1.19 GiB (12%)
Language : French
Default : No
Forced : No
Text
ID : 4
Format : UTF-8
Codec ID : S_TEXT/UTF8
Codec ID/Info : UTF-8 Plain Text
Language : English
Default : No
Forced : No
Menu
00:00:00.000 : en:00:00:00.000
00:09:27.150 : en:00:09:27.150
00:18:34.238 : en:00:18:34.238
00:26:49.483 : en:00:26:49.483
00:36:16.341 : en:00:36:16.341
00:46:34.709 : en:00:46:34.709
00:56:30.012 : en:00:56:30.012
01:05:20.959 : en:01:05:20.959
01:11:28.868 : en:01:11:28.868
01:21:19.374 : en:01:21:19.374
01:32:28.543 : en:01:32:28.543
01:41:21.492 : en:01:41:21.492
01:50:47.933 : en:01:50:47.933

Source vs Encode

Source | Encode

Скриншоты

Торрент перезалит 27.06.2014!!!
Заменён видеоряд и русская дорожка. За предоставленный материал спасибо DarLeg



Показать сообщения:    

Текущее время: 09-Дек 20:28

Часовой пояс: UTC + 3


Вы не можете начинать темы
Вы не можете отвечать на сообщения
Вы не можете редактировать свои сообщения
Вы не можете удалять свои сообщения
Вы не можете голосовать в опросах
Вы не можете прикреплять файлы к сообщениям
Вы не можете скачивать файлы