Как влюбленный / Like Someone in Love (Аббас Киаростами / Abbas Kiarostami) [2012, Франция, Япония, драма, BDRip 720p] [CC] VO (D.I.M.) + Original Jap + Sub Rus, Eng


 

[Цитировать]

Как влюбленный / Like Someone in Love Страна: Франция, Япония
Жанр: драма
Год выпуска: 2012
Продолжительность: 01:49:53
Перевод: Одноголосый закадровый D.I.M.
Cубтитры: английские, русские (L. Lacombe)
Оригинальная аудиодорожка: японский
Режиссер: Аббас Киаростами / Abbas Kiarostami
В ролях: Тадаси Окуно, Рин Таканаси, Рё Касэ, Денден, Рейко Мори, Канеко Кубота, Рёта Наканиси
Описание:
Токио. Он — пожилой мужчина, она — молодая женщина. Она ничего не знает о нём, а ему кажется, что он знает о ней всё. Она девушка лёгкого поведения, а он профессор социологии.
Однако обстоятельства их встречи не играют никакой роли в тех отношениях, которые устанавливаются между ними всего за одни сутки…
- Тип релиза: BDRip 720p (рип от Mashimaro@CtrlHD)
Контейнер: MKV
Видео: AVC (x264), 1194x720 (1,658:1) at 23,976 fps, 4504 Кbps, 0.219 bpp
Аудио 1: AC3; 192 Kbps; CBR; 2 ch; 48 khz | VO - D.I.M. |
Аудио 2: AC3; 640 Kbps; CBR; 3 ch; 48 khz | Японский |
Формат субтитров: softsub (SRT)

Скриншоты || x264 Info || MediaInfo || NotesNotes: Аудио дорожка 1, thx: dim7022
RU субтитры, thx: L. Lacombe

MediaInfo

Общее
Уникальный идентификатор                 : 170158742972198072494411072522295055400 (0x800361C03273FE9C8A1EA7687A4A1428)
Полное имя                               : Как влюбленный.2012.L1.720p.BluRay.x264-CtrlHD.mkv
Формат                                   : Matroska
Версия формата                           : Version 4 / Version 2
Размер файла                             : 4,18 Гбайт
Продолжительность                        : 1 ч. 49 м.
Общий поток                              : 5444 Кбит/сек
Название фильма                          : Like Someone in Love [720p] [2012] VO
Дата кодирования                         : UTC 2014-06-26 06:49:54
Программа кодирования                    : mkvmerge v7.0.0 ('Where We Going') 32bit built on Jun  9 2014 15:08:34
Библиотека кодирования                   : libebml v1.3.0 + libmatroska v1.4.1
Видео
Идентификатор                            : 1
Формат                                   : AVC
Формат/Информация                        : Advanced Video Codec
Профиль формата                          : High@L4.1
Параметр CABAC формата                   : Да
Параметр ReFrames формата                : 9 кадров
Идентификатор кодека                     : V_MPEG4/ISO/AVC
Продолжительность                        : 1 ч. 49 м.
Битрейт                                  : 4504 Кбит/сек
Ширина                                   : 1194 пикселя
Высота                                   : 720 пикселей
Соотношение сторон                       : 1,658
Режим частоты кадров                     : Постоянный
Частота кадров                           : 23,976 кадра/сек
Цветовое пространство                    : YUV
Субдискретизация насыщенности            : 4:2:0
Битовая глубина                          : 8 бит
Тип развёртки                            : Прогрессивная
Бит/(Пиксели*Кадры)                      : 0.219
Размер потока                            : 3,46 Гбайт (83%)
Заголовок                                : profile.php?mode=viewprofile&u=22488948
Библиотека кодирования                   : x264 core 142 r2431+42 c69a006 tMod [8-bit@all X86_64]
Настройки программы                      : cabac=1 / ref=9 / deblock=1:-3:-3 / analyse=0x3:0x113 / me=umh / subme=10 / psy=1 / fade_compensate=0.00 / psy_rd=1.05:0.00 / mixed_ref=1 / me_range=16 / chroma_me=1 / trellis=2 / 8x8dct=1 / cqm=0 / deadzone=21,11 / fast_pskip=0 / chroma_qp_offset=-2 / threads=6 / lookahead_threads=1 / sliced_threads=0 / nr=0 / decimate=0 / interlaced=0 / bluray_compat=0 / constrained_intra=0 / fgo=0 / bframes=7 / b_pyramid=2 / b_adapt=2 / b_bias=0 / direct=3 / weightb=1 / open_gop=0 / weightp=2 / keyint=250 / keyint_min=23 / scenecut=40 / intra_refresh=0 / rc_lookahead=60 / rc=crf / mbtree=0 / crf=17.0000 / qcomp=0.70 / qpmin=0:0:0 / qpmax=69:69:69 / qpstep=4 / vbv_maxrate=50000 / vbv_bufsize=62500 / crf_max=0.0 / nal_hrd=none / filler=0 / ip_ratio=1.30 / pb_ratio=1.20 / aq=1:0.90 / aq-sensitivity=10.00 / aq-factor=1.00:1.00:1.00 / aq2=0 / aq3=0
Язык                                     : English
Default                                  : Да
Forced                                   : Нет
Аудио #1
Идентификатор                            : 2
Формат                                   : AC-3
Формат/Информация                        : Audio Coding 3
Расширение режима                        : CM (complete main)
Параметр Endianness формата              : Big
Идентификатор кодека                     : A_AC3
Продолжительность                        : 1 ч. 49 м.
Вид битрейта                             : Постоянный
Битрейт                                  : 192 Кбит/сек
Каналы                                   : 2 канала
Расположение каналов                     : Front: L R
Частота                                  : 48,0 КГц
Битовая глубина                          : 16 бит
Метод сжатия                             : С потерями
Размер потока                            : 151 Мбайт (4%)
Заголовок                                : VO [D.I.M.]
Язык                                     : Russian
Default                                  : Да
Forced                                   : Нет
Аудио #2
Идентификатор                            : 3
Формат                                   : AC-3
Формат/Информация                        : Audio Coding 3
Расширение режима                        : CM (complete main)
Параметр Endianness формата              : Big
Идентификатор кодека                     : A_AC3
Продолжительность                        : 1 ч. 49 м.
Вид битрейта                             : Постоянный
Битрейт                                  : 640 Кбит/сек
Каналы                                   : 3 канала
Расположение каналов                     : Front: L C R
Частота                                  : 48,0 КГц
Битовая глубина                          : 16 бит
Метод сжатия                             : С потерями
Размер потока                            : 503 Мбайт (12%)
Язык                                     : Japanese
Default                                  : Нет
Forced                                   : Нет
Текст #1
Идентификатор                            : 4
Формат                                   : UTF-8
Идентификатор кодека                     : S_TEXT/UTF8
Идентификатор кодека/Информация          : UTF-8 Plain Text
Язык                                     : English
Default                                  : Нет
Forced                                   : Нет
Текст #2
Идентификатор                            : 5
Формат                                   : UTF-8
Идентификатор кодека                     : S_TEXT/UTF8
Идентификатор кодека/Информация          : UTF-8 Plain Text
Заголовок                                : [L. Lacombe]
Язык                                     : Russian
Default                                  : Нет
Forced                                   : Нет
Меню
00:00:00.000                             : en: 1. Cafe Theo
00:06:52.162                             : en: 2. Excuses
00:16:01.586                             : en: 3. Phone messages
00:27:11.463                             : en: 4. The professor's home
00:33:46.483                             : en: 5. Training a Parrot
00:41:03.503                             : en: 6. In the bedroom
00:49:57.369                             : en: 7. Ride to school
00:56:29.303                             : en: 8. "Who are you?"
01:06:06.796                             : en: 9. Car trouble
01:14:33.594                             : en:10. Old student
01:21:11.742                             : en:11. "Que sera, sera"
01:27:22.779                             : en:12. Phone calls
01:36:30.952                             : en:13. Neighbor
01:42:12.126                             : en:14. Hiding
01:47:43.457                             : en:15. End credits
x264 Infox264 [info]: frame I:811 Avg QP:14.25 size:118397
x264 [info]: frame P:29109 Avg QP:15.86 size: 48526
x264 [info]: frame B:128156 Avg QP:16.50 size: 17873
x264 [info]: consecutive B-frames: 0.8% 0.6% 4.6% 6.9% 6.2% 76.4% 2.1% 2.5%



Показать сообщения:    

Текущее время: 03-Дек 12:40

Часовой пояс: UTC + 3


Вы не можете начинать темы
Вы не можете отвечать на сообщения
Вы не можете редактировать свои сообщения
Вы не можете удалять свои сообщения
Вы не можете голосовать в опросах
Вы не можете прикреплять файлы к сообщениям
Вы не можете скачивать файлы