Сладости жизни / Жизнь прекрасна / Life is Sweet (Майк Ли / Mike Leigh) [1990, Великобритания, драма, комедия, BDRip 720p] DVO + AVO (Гаврилов) + Sub Rus, Eng + Original Eng


 

[Цитировать]

Сладости жизни / Жизнь прекрасна / Life is Sweet
Страна: Великобритания
Жанр: драма, комедия
Год выпуска: 1990
Продолжительность: 01:43:38
Перевод: Профессиональный (двухголосый закадровый)
Перевод: Авторский (одноголосый закадровый) Андрей Гаврилов
Cубтитры: русские, английские
Оригинальная аудиодорожка: английский
Режиссер: Майк Ли / Mike Leigh
В ролях: Элисон Стэдмен, Джим Броудбент, Клер Скиннер, Джейн Хоррокс, Стивен Ри, Тимоти Сполл, Дэвид Тьюлис, Мойя Брэди, Дэвид Нилсон, Харриет Торпе
Описание: На севере Лондона живет-поживает обычная семья: Венди, Энди и их великовозрастные дочки-близнецы Натали и Никола. Мама Венди работает клерком в магазине, ведет уроки аэробики в школе, соглашается поработать вместо подружки-официантки и успевает шутить, как заправская водевильная актриса.
Вдобавок она души не чает в папе Энди, который с головой погружен в неосуществимые проекты, мешающие ему сосредоточиться на карьере повара. В частности, они на пару с пьяным другом приобретают полуистлевший фургон, который намерены приспособить под торговую точку.
Натали и Никола — это одно сплошное горе. Натали — коротко стриженая оторва с угловатыми манерами, Никола — малокровная замарашка в очках, с немытой головой и нервными пальцами…
Повседневные отношения, маленькие трагедии, рутинные скандалы, большая любовь и другие кошмары.
Доп. информация: DVO и русские субтитры (thnx Core_soul), за дорогу с Гавриловым спасибо Nekontroliruemij_devil
Сэмпл: https://yadi.sk/i/6dRGNVd0UofPK
Тип релиза: BDRip 720p - iCO
Контейнер: MKV
Видео: AVC 1280x692 (1.85:1) 23.976 fps, 13823 kbps
Аудио: Russian / Dolby Digital Audio / 2.0 / 48 kHz / 192 kbps / 16-bit (DVO)
Аудио: Russian / Dolby Digital Audio / 2.0 / 48 kHz / 192 kbps / 16-bit (Гаврилов)
Аудио: English / FLAC / 2.0 / 48 kHz / 471 kbps / 16-bit
Аудио: English / AAC / 2.0 / 48 kHz / 72 kbps (Commentary by Mike Leigh)

Life Is Sweet 1990 720p BluRay FLAC2.0 x264-iCO

General Information
RELEASE.NAME....: Life.Is.Sweet.1990.720p.Criterion.BluRay.FLAC.x264-iCO.mkvRUNTiME.........: 01:43:38SiZE............: 10.4 GBViDEO.CODEC.....: x264, CRF 17.3FRAMERATE.......: 23.976BiTRATE.........: 13600 kbpsRESOLUTiON......: 1280x692AUDiO1..........: English FLAC 2.0 @ ~471 kbpsAUDiO2..........: English AAC 2.0 @ ~72 kbps - Commentary by Mike LeighCHAPTERS........: YesSUBTiTLES.......: English .srtSOURCE..........: Life Is Sweet 1990 1080p Blu-ray AVC DTS-HD MA 2.0 (Criterion Collection)
Source | Encode | EA



x264 Info
x264 [info]: profile High, level 4.1x264 [info]: frame I:826 Avg QP:18.52 size:184594x264 [info]: frame P:25620 Avg QP:19.81 size:106061x264 [info]: frame B:122643 Avg QP:22.09 size: 64211x264 [info]: consecutive B-frames: 0.8% 0.2% 2.4% 4.4% 8.9% 66.4% 6.9% 3.0% 4.5% 2.5%encoded 149089 frames, 3.34 fps, 13823.52 kb/s

MediaInfo

Общее
Уникальный идентификатор : 253710790578653080904617789614689052207 (0xBEDEEBBEB9332D9EA33571B34997662F)
Формат : Matroska
Версия формата : Version 4 / Version 2
Размер файла : 10,7 Гбайт
Продолжительность : 1 ч. 43 м.
Режим общего битрейта : Переменный
Общий поток : 14,8 Мбит/сек
Дата кодирования : UTC 2014-06-25 05:56:11
Программа кодирования : mkvmerge v6.9.1 ('Blue Panther') 64bit built on Apr 18 2014 18:23:38
Библиотека кодирования : libebml v1.3.0 + libmatroska v1.4.1
Видео
Идентификатор : 1
Формат : AVC
Формат/Информация : Advanced Video Codec
Профиль формата : High@L4.1
Параметр CABAC формата : Да
Параметр ReFrames формата : 9 кадров
Идентификатор кодека : V_MPEG4/ISO/AVC
Продолжительность : 1 ч. 43 м.
Ширина : 1280 пикселей
Высота : 692 пикселя
Соотношение сторон : 1,85:1
Режим частоты кадров : Постоянный
Частота кадров : 23,976 кадра/сек
Цветовое пространство : YUV
Субдискретизация насыщенности : 4:2:0
Битовая глубина : 8 бит
Тип развёртки : Прогрессивная
Библиотека кодирования : x264 core 140 r2377 1ca7bb9
Настройки программы : cabac=1 / ref=9 / deblock=1:-3:-3 / analyse=0x3:0x133 / me=umh / subme=10 / psy=1 / psy_rd=1.10:0.00 / mixed_ref=1 / me_range=24 / chroma_me=1 / trellis=2 / 8x8dct=1 / cqm=0 / deadzone=21,11 / fast_pskip=0 / chroma_qp_offset=-2 / threads=6 / lookahead_threads=1 / sliced_threads=0 / nr=0 / decimate=0 / interlaced=0 / bluray_compat=0 / constrained_intra=0 / bframes=9 / b_pyramid=2 / b_adapt=2 / b_bias=0 / direct=3 / weightb=1 / open_gop=0 / weightp=2 / keyint=250 / keyint_min=23 / scenecut=40 / intra_refresh=0 / rc=crf / mbtree=0 / crf=17.3 / qcomp=0.60 / qpmin=0 / qpmax=69 / qpstep=4 / ip_ratio=1.40 / pb_ratio=1.30 / aq=2:0.60
Язык : English
Default : Да
Forced : Нет
Аудио #1
Идентификатор : 2
Формат : AC-3
Формат/Информация : Audio Coding 3
Расширение режима : CM (complete main)
Параметр Endianness формата : Big
Идентификатор кодека : A_AC3
Продолжительность : 1 ч. 43 м.
Вид битрейта : Постоянный
Битрейт : 192 Кбит/сек
Каналы : 2 канала
Расположение каналов : Front: L R
Частота : 48,0 КГц
Битовая глубина : 16 бит
Метод сжатия : С потерями
Размер потока : 142 Мбайт (1%)
Заголовок : DVO
Язык : Russian
Default : Да
Forced : Нет
Аудио #2
Идентификатор : 3
Формат : AC-3
Формат/Информация : Audio Coding 3
Расширение режима : CM (complete main)
Параметр Endianness формата : Big
Идентификатор кодека : A_AC3
Продолжительность : 1 ч. 43 м.
Вид битрейта : Постоянный
Битрейт : 192 Кбит/сек
Каналы : 2 канала
Расположение каналов : Front: L R
Частота : 48,0 КГц
Битовая глубина : 16 бит
Метод сжатия : С потерями
Размер потока : 142 Мбайт (1%)
Заголовок : Гаврилов
Язык : Russian
Default : Нет
Forced : Нет
Аудио #3
Идентификатор : 4
Формат : FLAC
Формат/Информация : Free Lossless Audio Codec
Идентификатор кодека : A_FLAC
Продолжительность : 1 ч. 43 м.
Вид битрейта : Переменный
Каналы : 2 канала
Частота : 48,0 КГц
Битовая глубина : 16 бит
Библиотека кодирования : libFLAC 1.2.1 (UTC 2007-09-17)
Язык : English
Default : Нет
Forced : Нет
Аудио #4
Идентификатор : 5
Формат : AAC
Формат/Информация : Advanced Audio Codec
Профиль формата : HE-AAC / LC
Идентификатор кодека : A_AAC
Продолжительность : 1 ч. 43 м.
Каналы : 2 канала
Расположение каналов : Front: L R
Частота : 48,0 КГц / 24,0 КГц
Метод сжатия : С потерями
Задержка видео : 31 мс.
Заголовок : Commentary
Язык : English
Default : Нет
Forced : Нет
Текст #1
Идентификатор : 6
Формат : UTF-8
Идентификатор кодека : S_TEXT/UTF8
Идентификатор кодека/Информация : UTF-8 Plain Text
Язык : Russian
Default : Нет
Forced : Нет
Текст #2
Идентификатор : 7
Формат : UTF-8
Идентификатор кодека : S_TEXT/UTF8
Идентификатор кодека/Информация : UTF-8 Plain Text
Язык : English
Default : Нет
Forced : Нет
Меню
00:00:00.000 : en:00:00:00.000
00:03:20.784 : en:00:03:20.784
00:11:28.646 : en:00:11:28.646
00:17:14.075 : en:00:17:14.075
00:22:39.608 : en:00:22:39.608
00:28:43.972 : en:00:28:43.972
00:32:02.546 : en:00:32:02.546
00:37:26.786 : en:00:37:26.786
00:44:52.398 : en:00:44:52.398
00:47:41.025 : en:00:47:41.025
00:53:30.624 : en:00:53:30.624
00:59:05.250 : en:00:59:05.250
01:04:21.566 : en:01:04:21.566
01:10:08.830 : en:01:10:08.830
01:20:21.275 : en:01:20:21.275
01:30:17.954 : en:01:30:17.954
01:35:43.363 : en:01:35:43.363

Скриншоты




Показать сообщения:    

Текущее время: 08-Дек 23:06

Часовой пояс: UTC + 3


Вы не можете начинать темы
Вы не можете отвечать на сообщения
Вы не можете редактировать свои сообщения
Вы не можете удалять свои сообщения
Вы не можете голосовать в опросах
Вы не можете прикреплять файлы к сообщениям
Вы не можете скачивать файлы