Код неизвестен / Code inconnu: Recit incomplet de divers voyages / Code Unknown (Михаэль Ханеке / Michael Haneke) [2000 г., Франция, Германия, Румыния, драма, BDRip 720p] DVO (Екатеринбург Арт) + Original Fre + Sub (Rus, Eng)


 

[Цитировать]

Код неизвестен / Code inconnu: Recit incomplet de divers voyages- Год выпуска: 2000
Страна: Франция, Германия, Румыния
Жанр: драма
Продолжительность: 01:56:59
Перевод: Профессиональный (двухголосый закадровый) Екатеринбург Арт
Оригинальная аудиодорожка: Французская
Cубтитры: Русские форсированные (на румынскую речь, африканский малийский диалект), русские, английские, французские форсированные-Режиссер: Михаэль Ханеке / Michael Haneke
В ролях: Жюльет Бинош, Тьерри Нёвик, Йозеф Бирбихлер, Александр Хамиди, Маймуна Хелен Диарра, Она Лу Йенке, Джибрил Куят, Луминица Георгиу, Гренгута Харитон, Боб Николеску-Описание:
Знаменитый срыватель всех масок и исследователь скрытых сторон человеческой натуры Ханеке продолжает рассказывать нам о странностях человеческих отношений.
Анна, молодая начинающая актриса, ее приятель Жорж, военный корреспондент, который редко возвращается во Францию, его отец фермер, его младший брат Жан, который не желает идти по стопам отца, Амаду, который выбрал профессию преподавателя музыки в школе для глухо-немых детей потому, что его маленькая сестра глухо-немая, Мария, румынская девушка, которая терпит унижения, нищенствуя во Франции, чтобы посылать деньги семье в Румынии. Париж - город, который задает загадки и не дает ответов.- | IMDb | Сэмпл-Качество: BDRip 720p (SbR)
Контейнер: MKV
Видео: x264, 1280x692 (1.85:1), 23.976 fps, 9374 kbps
Аудио 1: Русский AС3, 2.0, 48 kHz, 192 kbps
Аудио 2: Французский DTS 5.1, 48 kHz, 1509kbps, 16-bit
Формат субтитров: softsub (SRT)

Скриншоты

Source | Encode


MInfo

Release info
RELEASE NAME..: Code inconnu: Récit incomplet de divers voyages 2000 720p BluRay DTS x264-SbR
RELEASE SIZE..: 8.89 GiB
RUNTIME.......: 1h:56m:59s
VIDEO CODEC...: x264, crf, L4.1
FRAMERATE.....: 23.976 fps
BITRATE.......: 9374 Kbps
RESOLUTION....: 1280x692
AUDIO.........: Multiple languages DTS 5.1 @ 1509kbps
SUBTITLES.....: English, french, russian
CHAPTER.......: Included
SOURCE........: Code inconnu: Récit incomplet de divers voyages 2000 1080p Blu-ray AVC DTS-HD MA 5.1
RELEASE DATE..: 17.01.2014
ENCODER.......: Delia
SCREENS MIRROR: |someimage
x264log
x264 [info]: frame I:739 Avg QP:16.80 size:129672
x264 [info]: frame P:29601 Avg QP:18.52 size: 72180
x264 [info]: frame B:137957 Avg QP:19.75 size: 43439
x264 [info]: consecutive B-frames: 0.6% 0.7% 2.6% 13.8% 13.1% 42.5% 7.6% 3.8% 3.6% 4.9% 2.1% 2.0% 2.6%
encoded 168297 frames, 1.84 fps, 9374.27 kb/s
General
Unique ID : 172782997148468493048909688635556879878 (0x81FCCB7898F233BDB19412F35B73DE06)
Complete name : Code.inconnu.Récit.incomplet.de.divers.voyages.2000.720p.BluRay.x264-SbR.mkv
Format : Matroska
Format version : Version 2
File size : 9.05 GiB
Duration : 1h 57mn
Overall bit rate : 11.1 Mbps
Movie name : Code inconnu / Код неизвестен (2000)
Encoded date : UTC 2014-06-24 17:27:18
Writing application : mkvmerge v7.0.0 ('Where We Going') 64bit built on Jun 9 2014 15:16:27
Writing library : libebml v1.3.0 + libmatroska v1.4.1
Attachment : Yes
Video
ID : 1
Format : AVC
Format/Info : Advanced Video Codec
Format profile : High@L4.1
Format settings, CABAC : Yes
Format settings, ReFrames : 9 frames
Codec ID : V_MPEG4/ISO/AVC
Duration : 1h 57mn
Bit rate : 9 152 Kbps
Width : 1 280 pixels
Height : 692 pixels
Display aspect ratio : 1.85:1
Frame rate mode : Constant
Frame rate : 23.976 fps
Color space : YUV
Chroma subsampling : 4:2:0
Bit depth : 8 bits
Scan type : Progressive
Bits/(Pixel*Frame) : 0.431
Stream size : 7.48 GiB (83%)
Title : Code.inconnu.Récit.incomplet.de.divers.voyages.2000.720p.BluRay.DTS.x264-SbR
Writing library : x264 core 140 r2377kMod 1ca7bb9
Encoding settings : cabac=1 / ref=9 / deblock=1:-3:-3 / analyse=0x3:0x113 / me=tesa / subme=11 / psy=1 / fade_compensate=0.00 / psy_rd=1.00:0.00 / mixed_ref=1 / me_range=32 / chroma_me=1 / trellis=2 / 8x8dct=1 / cqm=0 / deadzone=21,11 / fast_pskip=0 / chroma_qp_offset=-2 / threads=6 / lookahead_threads=1 / sliced_threads=0 / nr=0 / decimate=1 / interlaced=0 / bluray_compat=0 / constrained_intra=0 / fgo=0 / bframes=12 / b_pyramid=2 / b_adapt=2 / b_bias=0 / direct=3 / weightb=1 / open_gop=0 / weightp=2 / keyint=250 / keyint_min=23 / scenecut=40 / intra_refresh=0 / rc=crf / mbtree=0 / crf=17.7500 / qcomp=0.70 / qpmin=0 / qpmax=69 / qpstep=4 / ip_ratio=1.30 / pb_ratio=1.20 / aq=1:0.80
Language : French
Default : Yes
Forced : No
Color primaries : BT.709
Transfer characteristics : BT.709
Matrix coefficients : BT.709
Audio #1
ID : 2
Format : AC-3
Format/Info : Audio Coding 3
Mode extension : CM (complete main)
Format settings, Endianness : Big
Codec ID : A_AC3
Duration : 1h 57mn
Bit rate mode : Constant
Bit rate : 192 Kbps
Channel(s) : 2 channels
Channel positions : Front: L R
Sampling rate : 48.0 KHz
Bit depth : 16 bits
Compression mode : Lossy
Stream size : 161 MiB (2%)
Title : DVO – Екатеринбург Арт
Language : Russian
Default : Yes
Forced : No
Audio #2
ID : 3
Format : DTS
Format/Info : Digital Theater Systems
Mode : 16
Format settings, Endianness : Big
Codec ID : A_DTS
Duration : 1h 57mn
Bit rate mode : Constant
Bit rate : 1 509 Kbps
Channel(s) : 6 channels
Channel positions : Front: L C R, Side: L R, LFE
Sampling rate : 48.0 KHz
Bit depth : 16 bits
Compression mode : Lossy
Stream size : 1.23 GiB (14%)
Title : Multiple languages
Language : Multiple languages
Default : No
Forced : No
Text #1
ID : 4
Format : UTF-8
Codec ID : S_TEXT/UTF8
Codec ID/Info : UTF-8 Plain Text
Title : forced
Language : Russian
Default : Yes
Forced : Yes
Text #2
ID : 5
Format : UTF-8
Codec ID : S_TEXT/UTF8
Codec ID/Info : UTF-8 Plain Text
Title : R5
Language : Russian
Default : No
Forced : No
Text #3
ID : 6
Format : UTF-8
Codec ID : S_TEXT/UTF8
Codec ID/Info : UTF-8 Plain Text
Title : full
Language : English
Default : No
Forced : No
Text #4
ID : 7
Format : UTF-8
Codec ID : S_TEXT/UTF8
Codec ID/Info : UTF-8 Plain Text
Title : forced
Language : French
Default : No
Forced : No
Menu
00:00:00.000 : en:Chapter 01
00:12:08.519 : en:Chapter 02
00:22:11.204 : en:Chapter 03
00:32:08.760 : en:Chapter 04
00:40:47.945 : en:Chapter 05
00:51:18.617 : en:Chapter 06
00:58:19.329 : en:Chapter 07
01:07:28.044 : en:Chapter 08
01:14:03.188 : en:Chapter 09
01:22:18.892 : en:Chapter 10
01:32:39.011 : en:Chapter 11
01:44:24.007 : en:Chapter 12



Показать сообщения:    

Текущее время: 05-Дек 21:39

Часовой пояс: UTC + 3


Вы не можете начинать темы
Вы не можете отвечать на сообщения
Вы не можете редактировать свои сообщения
Вы не можете удалять свои сообщения
Вы не можете голосовать в опросах
Вы не можете прикреплять файлы к сообщениям
Вы не можете скачивать файлы